<?xml version="1.0" standalone="no"?>
<!DOCTYPE svg PUBLIC "-//W3C//DTD SVG 1.1//EN" "http://www.w3.org/Graphics/SVG/1.1/DTD/svg11.dtd" >
<svg xmlns="http://www.w3.org/2000/svg">
<metadata>Generated by IcoMoon</metadata>
<defs>
<font id="icomoon" horiz-adv-x="1024">
<font-face units-per-em="1024" ascent="960" descent="-64" />
<missing-glyph horiz-adv-x="1024" />
<glyph unicode="&#x20;" horiz-adv-x="512" d="" />
<glyph unicode="&#xe900;" glyph-name="arrow-right" horiz-adv-x="1170" d="M83.592 532.958h835.919l-275.017 280.949c-7.836 7.938-14.053 17.383-18.298 27.789s-6.429 21.568-6.429 32.841c0 11.273 2.185 22.435 6.429 32.841s10.462 19.851 18.298 27.789c15.662 15.905 36.849 24.832 58.931 24.832 22.084 0 43.271-8.927 58.934-24.832l358.607-367.199c31.398-31.881 49.132-75.184 49.32-120.405-0.407-44.927-18.127-87.881-49.32-119.552l-358.607-367.199c-7.795-7.907-17.037-14.165-27.199-18.425-10.162-4.257-21.046-6.427-32.029-6.388s-21.853 2.289-31.985 6.619c-10.133 4.33-19.329 10.659-27.070 18.62-7.739 7.963-13.865 17.403-18.035 27.785-4.167 10.381-6.29 21.502-6.251 32.722 0.037 11.22 2.241 22.323 6.478 32.673 4.24 10.352 10.433 19.749 18.227 27.655l275.017 280.096h-835.919c-22.17 0-43.432 8.997-59.108 25.010-15.677 16.016-24.484 37.737-24.484 60.384s8.807 44.368 24.484 60.382c15.676 16.016 36.938 25.012 59.108 25.012z" />
<glyph unicode="&#xe901;" horiz-adv-x="1092" d="M132.647-64h-115.833c-9.286 0-16.814 7.528-16.814 16.814v260.623c0 3.319 0.982 6.566 2.824 9.327l57.917 86.874c3.118 4.678 8.369 7.489 13.99 7.489s10.872-2.811 13.99-7.489l57.917-86.874c1.841-2.761 2.824-6.007 2.824-9.327v-260.623c-0.001-9.286-7.529-16.814-16.815-16.814zM33.629-30.372h82.204v238.718l-41.102 61.653-41.102-61.653v-238.718h0.001z" />
<glyph unicode="&#xe902;" horiz-adv-x="1092" d="M364.314-64h-115.833c-9.286 0-16.814 7.528-16.814 16.814v260.623c0 3.319 0.983 6.566 2.825 9.327l57.917 86.874c3.118 4.678 8.368 7.489 13.99 7.489s10.871-2.811 13.99-7.489l57.917-86.874c1.841-2.761 2.825-6.007 2.825-9.327v-260.623c-0.002-9.286-7.53-16.814-16.816-16.814zM265.296-30.372h82.203v238.718l-41.102 61.653-41.103-61.653 0.002-238.718z" />
<glyph unicode="&#xe903;" horiz-adv-x="1092" d="M595.982-64h-115.833c-9.288 0-16.816 7.528-16.816 16.814v260.623c0 3.319 0.983 6.566 2.825 9.327l57.917 86.874c3.118 4.678 8.368 7.489 13.99 7.489s10.871-2.811 13.991-7.489l57.916-86.874c1.841-2.761 2.825-6.007 2.825-9.327v-260.623c0-9.286-7.528-16.814-16.814-16.814zM496.963-30.372h82.203v238.718l-41.102 61.653-41.103-61.653v-238.718h0.002z" />
<glyph unicode="&#xe904;" horiz-adv-x="1092" d="M827.648-64h-115.833c-9.288 0-16.814 7.528-16.814 16.814v260.623c0 3.319 0.981 6.566 2.823 9.327l57.917 86.874c3.118 4.678 8.368 7.489 13.99 7.489 5.623 0 10.873-2.811 13.991-7.489l57.916-86.874c1.841-2.761 2.825-6.007 2.825-9.327v-260.623c0-9.286-7.528-16.814-16.814-16.814zM728.629-30.372h82.203v238.718l-41.102 61.653-41.102-61.653v-238.718z" />
<glyph unicode="&#xe905;" horiz-adv-x="1092" d="M1059.314-64h-115.833c-9.286 0-16.814 7.528-16.814 16.814v260.623c0 3.319 0.981 6.566 2.823 9.327l57.916 86.874c3.118 4.678 8.369 7.489 13.991 7.489s10.871-2.811 13.991-7.489l57.916-86.874c1.841-2.761 2.825-6.007 2.825-9.327v-260.623c0-9.286-7.528-16.814-16.814-16.814zM960.295-30.372h82.203v238.718l-41.102 61.653-41.102-61.653v-238.718z" />
<glyph unicode="&#xe906;" horiz-adv-x="1092" d="M248.48 144.5h-115.833c-9.286 0-16.814 7.528-16.814 16.814 0 9.288 7.528 16.816 16.814 16.816h115.833c9.286 0 16.814-7.528 16.814-16.816 0-9.286-7.528-16.814-16.814-16.814z" />
<glyph unicode="&#xe907;" horiz-adv-x="1092" d="M248.48 40.25h-115.833c-9.286 0-16.814 7.528-16.814 16.814 0 9.288 7.528 16.816 16.814 16.816h115.833c9.286 0 16.814-7.528 16.814-16.816 0-9.286-7.528-16.814-16.814-16.814z" />
<glyph unicode="&#xe908;" horiz-adv-x="1092" d="M480.147 144.5h-115.831c-9.288 0-16.816 7.528-16.816 16.814 0 9.288 7.528 16.816 16.816 16.816h115.831c9.288 0 16.814-7.528 16.814-16.816 0-9.286-7.526-16.814-16.814-16.814z" />
<glyph unicode="&#xe909;" horiz-adv-x="1092" d="M480.147 40.25h-115.831c-9.288 0-16.816 7.528-16.816 16.814 0 9.288 7.528 16.816 16.816 16.816h115.831c9.288 0 16.814-7.528 16.814-16.816 0-9.286-7.526-16.814-16.814-16.814z" />
<glyph unicode="&#xe90a;" horiz-adv-x="1092" d="M711.813 144.5h-115.831c-9.288 0-16.816 7.528-16.816 16.814 0 9.288 7.528 16.816 16.816 16.816h115.831c9.288 0 16.816-7.528 16.816-16.816 0-9.286-7.528-16.814-16.816-16.814z" />
<glyph unicode="&#xe90b;" horiz-adv-x="1092" d="M711.813 40.25h-115.831c-9.288 0-16.816 7.528-16.816 16.814 0 9.288 7.528 16.816 16.816 16.816h115.831c9.288 0 16.816-7.528 16.816-16.816 0-9.286-7.528-16.814-16.816-16.814z" />
<glyph unicode="&#xe90c;" horiz-adv-x="1092" d="M943.481 144.5h-115.833c-9.286 0-16.814 7.528-16.814 16.814 0 9.288 7.528 16.816 16.814 16.816h115.833c9.286 0 16.814-7.528 16.814-16.816 0-9.286-7.528-16.814-16.814-16.814z" />
<glyph unicode="&#xe90d;" horiz-adv-x="1092" d="M943.481 40.25h-115.833c-9.286 0-16.814 7.528-16.814 16.814 0 9.288 7.528 16.816 16.814 16.816h115.833c9.286 0 16.814-7.528 16.814-16.816 0-9.286-7.528-16.814-16.814-16.814z" />
<glyph unicode="&#xe90e;" horiz-adv-x="1092" d="M928.986 387.75h-781.872c-9.286 0-16.814 7.528-16.814 16.816 0 9.286 7.528 16.814 16.814 16.814h781.872c9.286 0 16.814-7.528 16.814-16.814 0-9.288-7.528-16.816-16.814-16.816z" />
<glyph unicode="&#xe90f;" horiz-adv-x="1092" d="M763.947 387.75h-451.75c-9.286 0-16.814 7.528-16.814 16.814v379.766c0 9.286 7.528 16.814 16.814 16.814 9.288 0 16.816-7.528 16.816-16.814v-362.952h418.12v349.718c0 9.286 7.526 16.814 16.814 16.814 9.286 0 16.814-7.528 16.814-16.814v-366.532c0-9.286-7.528-16.814-16.814-16.814z" />
<glyph unicode="&#xe910;" horiz-adv-x="1092" d="M850.785 700.496c-3.413 0-6.854 1.034-9.832 3.185l-303.288 219.041-303.037-202.025c-7.728-5.151-18.167-3.063-23.318 4.663-5.151 7.728-3.063 18.167 4.663 23.318l312.75 208.499c5.839 3.893 13.483 3.749 19.171-0.359l312.75-225.874c7.528-5.437 9.223-15.949 3.785-23.477-3.285-4.55-8.429-6.97-13.643-6.97z" />
<glyph unicode="&#xe911;" horiz-adv-x="1092" d="M694.448 822.124c-9.286 0-16.814 7.528-16.814 16.814v86.875c0 9.286 7.528 16.815 16.814 16.815s16.814-7.528 16.814-16.815v-86.875c0-9.286-7.528-16.814-16.814-16.814z" />
<glyph unicode="&#xe912;" horiz-adv-x="1092" d="M624.947 387.746h-173.749c-9.288 0-16.816 7.528-16.816 16.816v173.749c0 9.286 7.528 16.814 16.816 16.814h173.749c9.286 0 16.814-7.528 16.814-16.814v-173.749c0-9.288-7.528-16.816-16.814-16.816zM468.012 421.376h140.121v140.121h-140.121v-140.121z" />
<glyph unicode="&#xe913;" horiz-adv-x="1092" d="M538.064 665.748c-47.594 0-86.315 38.721-86.315 86.315s38.721 86.314 86.315 86.314c47.594 0 86.315-38.721 86.315-86.314s-38.721-86.315-86.315-86.315zM538.064 804.748c-29.051 0-52.685-23.634-52.685-52.685s23.634-52.685 52.685-52.685c29.051 0 52.685 23.634 52.685 52.685s-23.634 52.685-52.685 52.685z" />
<glyph unicode="&#xe914;" horiz-adv-x="1092" d="M538.064 735.246c-0.546 0-1.108 0.029-1.654 0.085-0.546 0.055-1.092 0.131-1.633 0.244-0.532 0.106-1.070 0.246-1.596 0.406-0.519 0.155-1.044 0.343-1.548 0.555-0.505 0.21-1.002 0.447-1.487 0.7-0.483 0.259-0.959 0.539-1.415 0.848-0.463 0.3-0.903 0.63-1.331 0.973-0.427 0.352-0.84 0.729-1.225 1.114s-0.765 0.799-1.114 1.227c-0.343 0.427-0.672 0.869-0.973 1.329-0.309 0.456-0.589 0.932-0.848 1.417-0.253 0.483-0.492 0.98-0.701 1.485s-0.399 1.029-0.553 1.548c-0.16 0.526-0.302 1.065-0.406 1.597-0.113 0.539-0.189 1.085-0.246 1.633-0.056 0.546-0.084 1.106-0.084 1.652 0 0.548 0.027 1.108 0.084 1.654s0.133 1.094 0.246 1.633c0.104 0.532 0.246 1.072 0.406 1.597 0.154 0.517 0.343 1.043 0.553 1.548s0.449 1.009 0.701 1.485c0.259 0.483 0.539 0.961 0.848 1.415 0.3 0.463 0.63 0.905 0.973 1.331 0.35 0.428 0.729 0.841 1.114 1.227 0.386 0.393 0.799 0.763 1.225 1.114 0.428 0.343 0.869 0.672 1.331 0.973 0.456 0.309 0.932 0.589 1.415 0.848 0.485 0.259 0.981 0.49 1.487 0.7 0.503 0.21 1.029 0.399 1.548 0.555 0.526 0.16 1.065 0.3 1.596 0.406 0.541 0.111 1.087 0.189 1.633 0.244 1.099 0.113 2.207 0.113 3.308 0 0.546-0.055 1.092-0.133 1.632-0.244 0.532-0.106 1.072-0.246 1.597-0.406 0.519-0.155 1.044-0.345 1.548-0.555s1.002-0.44 1.487-0.7c0.483-0.259 0.959-0.539 1.415-0.848 0.456-0.3 0.903-0.63 1.331-0.973 0.427-0.352 0.84-0.722 1.225-1.114 0.386-0.386 0.765-0.799 1.114-1.227 0.343-0.427 0.672-0.869 0.975-1.331 0.307-0.454 0.589-0.932 0.848-1.415 0.251-0.476 0.488-0.98 0.7-1.485 0.21-0.505 0.399-1.031 0.553-1.548 0.16-0.526 0.302-1.065 0.406-1.597 0.113-0.539 0.189-1.087 0.246-1.633s0.084-1.106 0.084-1.654c0-0.546-0.027-1.106-0.084-1.652-0.056-0.548-0.133-1.094-0.246-1.633-0.104-0.532-0.246-1.072-0.406-1.597-0.154-0.519-0.343-1.043-0.553-1.548-0.212-0.505-0.449-1.002-0.7-1.485-0.259-0.485-0.541-0.961-0.848-1.417-0.302-0.461-0.631-0.903-0.975-1.329-0.35-0.428-0.729-0.841-1.114-1.227s-0.799-0.763-1.225-1.114c-0.428-0.343-0.876-0.672-1.331-0.973-0.456-0.309-0.932-0.589-1.415-0.848-0.485-0.253-0.981-0.49-1.487-0.7-0.503-0.212-1.029-0.399-1.548-0.555-0.526-0.16-1.065-0.3-1.597-0.406-0.539-0.113-1.085-0.189-1.632-0.244-0.548-0.056-1.108-0.085-1.654-0.085z" />
<glyph unicode="&#xe915;" horiz-adv-x="1092" d="M312.189 387.748h-62.773c-41.723 0-75.665 33.944-75.665 75.665v3.924c0 41.723 33.942 75.665 75.665 75.665h3.922c41.723 0 75.665-33.942 75.665-75.665v-62.773c0-9.288-7.526-16.816-16.814-16.816zM249.416 509.373c-23.18 0-42.037-18.857-42.037-42.037v-3.924c0-23.178 18.857-42.035 42.037-42.035h45.959v45.959c0 23.18-18.857 42.037-42.037 42.037h-3.922z" />
<glyph unicode="&#xe916;" horiz-adv-x="1092" d="M826.721 387.748h-62.773c-9.288 0-16.816 7.528-16.816 16.816v62.773c0 41.723 33.944 75.665 75.665 75.665h3.924c41.723 0 75.665-33.942 75.665-75.665v-3.924c0-41.721-33.942-75.665-75.665-75.665zM780.762 421.378h45.959c23.18 0 42.037 18.857 42.037 42.035v3.924c0 23.18-18.857 42.037-42.037 42.037h-3.924c-23.178 0-42.035-18.857-42.035-42.037v-45.959z" />
<glyph unicode="&#xe917;" horiz-adv-x="1182" d="M987.622 850.55h-57.673c-8.609 0-14.060-5.453-14.060-11.478l-0.002-186.504c0-7.747 9.183-11.766 18.651-11.766 9.183 0 18.651 4.017 18.651 11.766v66.566h32.14c37.872 0 67.428 18.080 67.428 65.135v1.719c0 47.058-28.694 64.562-65.134 64.562zM1015.452 781.398c0-22.38-11.475-32.998-30.125-32.998h-32.138v69.438h32.138c18.651 0 30.125-10.618 30.125-32.998v-3.443z" />
<glyph unicode="&#xe918;" horiz-adv-x="1182" d="M676.311 777.639c-54.471 54.471-126.891 84.468-203.924 84.468s-149.453-29.997-203.922-84.468c-6.575-6.572-6.575-17.228 0-23.803 6.571-6.573 17.229-6.573 23.8 0 48.114 48.11 112.081 74.607 180.12 74.607s132.009-26.497 180.12-74.607c3.289-3.287 7.597-4.929 11.902-4.929 4.307 0 8.615 1.642 11.904 4.929 6.571 6.571 6.571 17.231 0 23.803z" />
<glyph unicode="&#xe919;" horiz-adv-x="1182" d="M606.87 708.198c-74.155 74.155-194.812 74.155-268.965 0-6.573-6.573-6.573-17.231 0-23.804 6.573-6.571 17.233-6.571 23.804 0 61.028 61.026 160.329 61.026 221.357 0 3.287-3.287 7.593-4.929 11.902-4.929 4.305 0 8.613 1.642 11.902 4.929 6.573 6.573 6.573 17.231 0 23.804z" />
<glyph unicode="&#xe91a;" horiz-adv-x="1182" d="M538.528 639.858c-36.47 36.47-95.813 36.47-132.283 0-6.575-6.571-6.575-17.229 0-23.804 6.573-6.573 17.231-6.571 23.804 0 23.347 23.345 61.332 23.345 84.679 0 3.285-3.289 7.593-4.929 11.9-4.929s8.613 1.644 11.9 4.929c6.575 6.575 6.575 17.231 0 23.804z" />
<glyph unicode="&#xe91b;" horiz-adv-x="1182" d="M828.278 312.036c-7.282 4.007-14.47 8.397-21.354 13.050l-111.334 75.211c-33.79 22.827-73.204 34.893-113.981 34.893h-204.349c-54.24 0-105.279-21.085-143.711-59.37-19.753-19.682-42.258-36.145-66.888-48.933-14.566-7.566-23.615-22.451-23.615-38.853 0-24.153 19.648-43.8 43.8-43.8h69.67c9.295 0 16.831 7.536 16.831 16.833 0 9.295-7.536 16.831-16.831 16.831h-69.67c-5.589 0-10.138 4.549-10.138 10.138 0 3.787 2.093 7.227 5.465 8.976 27.672 14.368 52.953 32.861 75.134 54.961 32.077 31.957 74.675 49.556 119.95 49.556h45.751v-123.63h-55.92c-9.297 0-16.833-7.536-16.833-16.831 0-9.297 7.536-16.833 16.833-16.833h461.533c13.836 0 25.092 11.258 25.092 25.094 0 17.719-9.748 34.085-25.435 42.709zM456.676 277.896v123.63h124.934c34.036 0 66.934-10.071 95.136-29.123l111.334-75.213c7.731-5.222 15.797-10.151 23.979-14.651 2.119-1.166 3.893-2.767 5.226-4.643h-360.609z" />
<glyph unicode="&#xe91c;" horiz-adv-x="1182" d="M498.381 218.646h-51.992c-9.295 0-16.833-7.536-16.833-16.831 0-9.297 7.538-16.833 16.833-16.833h51.992c9.295 0 16.833 7.536 16.833 16.833 0 9.295-7.538 16.831-16.833 16.831z" />
<glyph unicode="&#xe91d;" horiz-adv-x="1182" d="M1167.015 232.775l-5.317 8.824c-20.037 33.25-53.366 56.665-91.441 64.238l-43.455 8.643v220.26h112.457c23.156 0 41.992 18.838 41.992 41.992v327.808c0 23.155-18.838 41.991-41.992 41.991h-327.808c-23.156 0-41.992-18.838-41.992-41.991v-124.349c0-9.295 7.536-16.832 16.833-16.832 9.299 0 16.833 7.537 16.833 16.832v124.349c0 4.592 3.736 8.328 8.328 8.328h327.81c4.594 0 8.33-3.736 8.33-8.328v-327.81c0-4.592-3.736-8.33-8.33-8.33h-327.812c-4.592 0-8.328 3.738-8.328 8.33v94.035c0 9.295-7.536 16.833-16.833 16.833-9.299 0-16.833-7.538-16.833-16.833v-94.035c0-23.156 18.838-41.992 41.992-41.992h127.523v-202.797l-22.337 4.443c-30.832 6.132-60.889 24.739-80.817 38.205l-111.332 75.209c-42.358 28.613-91.762 43.737-142.878 43.737h-204.345c-67.998 0-131.972-26.429-180.141-74.417-30.48-30.368-68.847-51.078-110.955-59.898l-24.166-5.061c-35.926-7.522-62-39.627-62-76.333v-163.015c0-19.444 11.481-37.114 29.252-45.011l67.043-29.798c4.055-21.201 14.268-41.444 30.648-57.824 21.768-21.77 50.363-32.654 78.959-32.654s57.188 10.884 78.96 32.654c14.001 13.999 23.471 30.83 28.467 48.662h559.004c4.996-17.831 14.47-34.662 28.471-48.662 21.092-21.090 49.13-32.707 78.958-32.707s57.87 11.615 78.962 32.707c14.001 13.999 23.471 30.83 28.467 48.662h31.933c34.414 0 62.413 27.999 62.413 62.413v87.304c-0.004 18.402-5.025 36.458-14.523 52.22zM972.639 534.741h20.5v-213.567l-20.5 4.078v209.489zM261.057 5.977c-14.732-14.732-34.32-22.845-55.156-22.845s-40.424 8.113-55.156 22.845c-23.633 23.633-28.89 58.778-15.796 87.544 0.106 0.232 0.208 0.465 0.314 0.695 0.399 0.855 0.822 1.699 1.253 2.538 0.203 0.398 0.406 0.792 0.619 1.184 0.39 0.731 0.796 1.455 1.211 2.174 0.286 0.496 0.579 0.989 0.877 1.477 0.385 0.636 0.775 1.268 1.182 1.892 0.367 0.565 0.746 1.124 1.129 1.68 0.378 0.551 0.755 1.107 1.147 1.648 0.45 0.62 0.918 1.231 1.389 1.839 0.367 0.475 0.724 0.955 1.103 1.424 0.554 0.685 1.133 1.355 1.71 2.024 0.33 0.38 0.646 0.77 0.983 1.146 0.858 0.953 1.742 1.888 2.652 2.804 0.078 0.079 0.15 0.161 0.228 0.24 0.173 0.173 0.355 0.335 0.531 0.506 0.771 0.756 1.546 1.504 2.338 2.221 0.205 0.187 0.422 0.36 0.63 0.545 0.789 0.699 1.583 1.392 2.395 2.056 0.076 0.061 0.157 0.12 0.233 0.181 28.53 23.089 69.678 23.062 98.173-0.093 0.033-0.028 0.067-0.049 0.102-0.077 0.868-0.709 1.721-1.453 2.568-2.206 0.152-0.134 0.309-0.26 0.459-0.396 0.979-0.884 1.94-1.796 2.881-2.737 1.014-1.016 1.993-2.060 2.944-3.119 0.417-0.467 0.811-0.945 1.217-1.418 0.492-0.577 0.989-1.156 1.465-1.745 0.532-0.662 1.048-1.335 1.556-2.009 0.286-0.376 0.569-0.756 0.847-1.136 0.614-0.849 1.215-1.707 1.794-2.578 0.1-0.148 0.197-0.297 0.293-0.445 19.801-30.243 16.431-71.316-10.114-97.863zM1034.917 5.977c-14.734-14.732-34.322-22.845-55.158-22.845s-40.42 8.113-55.154 22.845c-26.549 26.547-29.919 67.627-10.116 97.867 0.095 0.146 0.189 0.291 0.286 0.433 0.579 0.872 1.182 1.735 1.8 2.588 0.276 0.378 0.557 0.752 0.841 1.124 0.51 0.677 1.026 1.355 1.564 2.020 0.475 0.585 0.963 1.158 1.455 1.729 0.408 0.479 0.807 0.963 1.229 1.432 0.951 1.059 1.93 2.101 2.944 3.117 14.734 14.732 34.318 22.845 55.154 22.845s40.424-8.113 55.156-22.845c1.016-1.016 1.995-2.062 2.944-3.119 0.421-0.467 0.815-0.947 1.221-1.422 0.494-0.575 0.989-1.152 1.461-1.739 0.536-0.664 1.050-1.337 1.56-2.015 0.284-0.376 0.569-0.752 0.845-1.132 0.616-0.853 1.219-1.707 1.796-2.578 0.098-0.148 0.195-0.295 0.293-0.443 19.795-30.24 16.425-71.318-10.12-97.863zM1147.876 93.251c0-15.852-12.902-28.751-28.757-28.751h-27.711c-0.66 24.413-9.277 47.705-24.783 66.8-0.104 0.13-0.205 0.264-0.311 0.392-0.959 1.17-1.953 2.318-2.964 3.458-0.26 0.289-0.504 0.591-0.764 0.88-1.071 1.18-2.18 2.336-3.304 3.476-0.193 0.195-0.368 0.398-0.561 0.589-14.501 14.499-32.288 24.521-51.679 29.367-8.816 2.204-17.961 3.338-27.284 3.338-7.456 0-14.801-0.727-21.955-2.144-21.459-4.256-41.186-14.744-57.005-30.56-0.189-0.189-0.362-0.388-0.549-0.579-1.13-1.146-2.243-2.306-3.316-3.489-0.254-0.28-0.488-0.569-0.738-0.851-1.020-1.15-2.026-2.308-2.993-3.489-0.096-0.118-0.185-0.24-0.284-0.36-15.518-19.098-24.145-42.403-24.806-66.828h-550.563c-0.662 24.454-9.307 47.787-24.865 66.901-0.071 0.091-0.14 0.181-0.211 0.272-1.016 1.241-2.072 2.458-3.145 3.661-0.197 0.223-0.382 0.451-0.583 0.672-1.258 1.388-2.55 2.753-3.885 4.090-5.443 5.441-11.313 10.205-17.501 14.287-18.568 12.245-40.013 18.367-61.458 18.367-28.595 0-57.191-10.886-78.96-32.654-1.244-1.245-2.446-2.521-3.623-3.812-0.348-0.382-0.683-0.774-1.027-1.158-0.831-0.939-1.648-1.888-2.444-2.848-0.353-0.427-0.706-0.857-1.052-1.29-0.824-1.028-1.627-2.066-2.412-3.115-0.245-0.329-0.496-0.65-0.734-0.979-2.109-2.887-4.066-5.864-5.875-8.917-0.051-0.087-0.099-0.173-0.15-0.26-0.884-1.503-1.731-3.025-2.541-4.565-0.023-0.043-0.046-0.089-0.071-0.134-5.869-11.166-9.815-23.245-11.624-35.773l-52.461 23.318c-5.626 2.501-9.261 8.096-9.261 14.249v163.015c0 20.864 14.822 39.111 35.243 43.388l24.166 5.061c48.508 10.161 92.704 34.020 127.813 68.998 41.817 41.661 97.353 64.605 156.381 64.605h204.345c44.375 0 87.263-13.131 124.034-37.969l111.332-75.211c22.339-15.094 56.298-36.005 93.093-43.327l153.622-30.549c28.806-5.728 54.016-23.442 69.175-48.595l5.317-8.824c6.341-10.516 9.689-22.567 9.689-34.848v-87.304z" />
<glyph unicode="&#xe91e;" horiz-adv-x="1182" d="M242.036 97.266c-9.655 9.653-22.485 14.968-36.135 14.968s-26.483-5.317-36.134-14.968c-9.651-9.649-14.968-22.483-14.968-36.133 0-13.649 5.317-26.482 14.968-36.133s22.484-14.968 36.136-14.968c13.651 0 26.484 5.315 36.133 14.968 19.925 19.925 19.925 52.342 0 72.267zM218.23 48.803c-3.293-3.293-7.672-5.106-12.329-5.106-4.659 0-9.037 1.814-12.33 5.108s-5.109 7.67-5.109 12.329 1.814 9.037 5.109 12.331c3.293 3.293 7.671 5.108 12.33 5.108 4.657 0 9.037-1.814 12.329-5.108 6.8-6.802 6.8-17.865 0-24.663z" />
<glyph unicode="&#xe91f;" horiz-adv-x="1182" d="M1015.895 97.264c-9.649 9.653-22.483 14.97-36.135 14.97-13.651 0-26.48-5.315-36.135-14.968-19.923-19.925-19.923-52.342 0-72.267 9.653-9.653 22.485-14.968 36.135-14.968 13.653 0 26.482 5.315 36.133 14.966 9.653 9.651 14.968 22.483 14.968 36.133s-5.315 26.482-14.966 36.133zM992.089 48.801c-3.293-3.295-7.67-5.108-12.329-5.108-4.657 0-9.037 1.814-12.329 5.108-6.8 6.798-6.8 17.861 0 24.659 3.293 3.295 7.672 5.11 12.329 5.11 4.659 0 9.037-1.814 12.331-5.11 3.295-3.293 5.108-7.67 5.108-12.329 0-4.655-1.812-9.035-5.11-12.329z" />
<glyph unicode="&#xe920;" glyph-name="chat" d="M3.061-60.938c2.771-2.773 6.861-3.76 10.591-2.558l231.437 74.53c77.73-47.58 169.123-75.034 266.911-75.034 282.77 0 512 229.232 512 512 0 282.77-229.23 512-512 512-282.768 0-512-229.229-512-512 0-97.788 27.454-189.181 75.034-266.911l-74.531-231.437c-1.201-3.73-0.214-7.82 2.557-10.591zM512-43.102c-95.497 0-184.581 27.278-259.979 74.422-2.61 1.632-5.81 2.029-8.742 1.087l-216.638-69.766 69.765 216.639c0.944 2.932 0.547 6.131-1.086 8.742-47.144 75.398-74.421 164.482-74.421 259.979 0 271.228 219.873 491.102 491.102 491.102s491.102-219.873 491.102-491.102c0-271.228-219.874-491.102-491.102-491.102zM565.123 448.006c0-29.343-23.788-53.131-53.131-53.131s-53.129 23.788-53.129 53.131c0 29.343 23.786 53.131 53.129 53.131s53.131-23.788 53.131-53.131zM777.659 448.006c0-29.343-23.788-53.131-53.131-53.131s-53.131 23.788-53.131 53.131c0 29.343 23.788 53.131 53.131 53.131s53.131-23.788 53.131-53.131zM352.597 448.006c0-29.343-23.786-53.131-53.129-53.131s-53.131 23.788-53.131 53.131c0 29.343 23.788 53.131 53.131 53.131s53.129-23.788 53.129-53.131z" />
<glyph unicode="&#xe921;" glyph-name="date" horiz-adv-x="922" d="M203.435 502.272h101.717v-101.718h-101.717v101.718zM915.456 756.565v-712.021c0-55.945-45.773-101.718-101.716-101.718h-712.023c-26.977 0-52.849 10.717-71.925 29.792s-29.792 44.947-29.792 71.926l0.509 712.021c0 55.945 44.756 101.717 101.209 101.717h50.859v101.717h101.718v-101.717h406.868v101.717h101.718v-101.717h50.86c55.943 0 101.716-45.773 101.716-101.717zM101.717 654.848h712.023v101.717h-712.023v-101.717zM813.74 44.544v508.586h-712.023v-508.586h712.023zM610.304 400.554h101.718v101.718h-101.718v-101.718zM406.87 400.554h101.716v101.718h-101.716v-101.718z" />
<glyph unicode="&#xe922;" glyph-name="face" horiz-adv-x="543" d="M151.28 381.998c-3.782 0-86.986 0-124.806 0-20.171 0-26.474 7.688-26.474 26.912 0 51.265 0 103.811 0 155.075 0 20.505 7.564 26.912 26.474 26.912h124.806c0 3.845 0 78.177 0 112.782 0 51.264 8.825 99.964 34.038 144.82 26.475 46.138 64.294 76.896 112.2 94.839 31.516 11.534 63.032 16.661 97.071 16.661h123.545c17.65 0 25.213-7.69 25.213-25.632v-146.103c0-17.942-7.563-25.632-25.213-25.632-34.039 0-68.075 0-102.114-1.281-34.039 0-51.687-16.661-51.687-52.545-1.26-38.448 0-75.615 0-115.344h146.238c20.171 0 27.734-7.69 27.734-28.196v-155.073c0-20.507-6.303-26.914-27.734-26.914-45.384 0-142.455 0-146.238 0v-417.802c0-21.786-6.303-29.477-28.996-29.477-52.947 0-104.636 0-157.583 0-18.91 0-26.474 7.69-26.474 26.914 0 134.568 0 415.238 0 419.083z" />
<glyph unicode="&#xe923;" glyph-name="heatphone" horiz-adv-x="881" d="M784.919 609.714c0 193.458-154.282 350.286-344.599 350.286s-344.598-156.828-344.598-350.286c-49.201-6.226-95.722-38.92-95.722-114.815v-182.927c0-85.625 58.965-116.761 114.866-116.761h55.518c10.573 0 19.144 8.712 19.144 19.46v376.75c0 10.748-8.572 19.46-19.144 19.46h-36.374c0 171.962 137.141 311.365 306.31 311.365s306.309-139.404 306.309-311.365h-36.375c-10.572 0-19.143-8.712-19.143-19.46v-376.166c0-10.748 8.571-19.46 19.143-19.46h36.375c-5.36-133.691-68.536-165.024-194.697-170.666v13.038c0 21.496-17.142 38.92-38.289 38.92h-120.418c-21.146 0-38.287-17.424-38.287-38.92v-63.246c0-21.496 17.142-38.92 38.287-38.92h120.801c21.148 0 38.289 17.424 38.289 38.92v11.287c121.375 5.644 226.286 31.138 232.604 210.756 49.201 6.228 95.721 38.92 95.721 114.815v182.927c0 76.284-46.33 108.784-95.721 115.010zM151.24 573.323v-338.608h-37.331c-28.334 0-76.577 10.119-76.577 77.84v182.927c0 67.138 47.669 77.84 76.577 77.84h37.331zM514.025-25.274h-120.801v63.246h120.801v-63.246zM842.351 311.972c0-67.138-47.669-77.84-76.577-77.84h-36.375v337.83h37.331c28.334 0 76.579-10.119 76.579-77.84l-0.958-182.149z" />
<glyph unicode="&#xe924;" glyph-name="location" horiz-adv-x="860" d="M430.080 960c-114.018-0.124-223.332-45.025-303.959-124.852s-125.985-188.062-126.121-300.96c0-109.654 85.749-281.258 254.876-510.038 20.136-27.312 46.498-49.531 76.941-64.848 30.446-15.319 64.113-23.302 98.263-23.302s67.817 7.983 98.263 23.302c30.444 15.317 56.805 37.536 76.941 64.848 169.126 228.78 254.876 400.384 254.876 510.038-0.137 112.898-45.494 221.132-126.122 300.96-80.626 79.827-189.94 124.728-303.958 124.852zM430.080 364.46c-34.089 0-67.414 10.009-95.758 28.762s-50.436 45.408-63.482 76.593c-13.044 31.185-16.458 65.499-9.808 98.605 6.652 33.108 23.067 63.517 47.172 87.384 24.105 23.869 54.817 40.124 88.25 46.709 33.436 6.584 68.090 3.205 99.586-9.712 31.494-12.917 58.413-34.791 77.351-62.859 18.94-28.066 29.049-61.061 29.049-94.816 0-45.263-18.16-88.672-50.483-120.678-32.324-32.008-76.163-49.988-121.876-49.988z" />
<glyph unicode="&#xe925;" glyph-name="mail" horiz-adv-x="1089" d="M1087.274 748.591l-382.094-391.82c-42.605-43.579-100.324-68.050-160.5-68.050s-117.895 24.471-160.5 68.050l-382.093 391.82c-0.635-7.354-2.088-14.010-2.088-21.318v-558.546c0.072-61.699 24.006-120.852 66.552-164.481s100.23-68.172 160.399-68.246h635.46c60.17 0.074 117.854 24.617 160.4 68.246s66.479 102.781 66.551 164.481v558.546c0 7.307-1.453 13.963-2.087 21.318zM640.998 422.585l414.594 425.194c-20.083 34.15-48.411 62.416-82.249 82.072-33.836 19.657-72.042 30.040-110.932 30.149h-635.46c-38.89-0.109-77.096-10.492-110.933-30.149s-62.164-47.923-82.248-82.072l414.594-425.194c25.58-26.125 60.213-40.794 96.317-40.794s70.737 14.669 96.317 40.794z" />
<glyph unicode="&#xe927;" glyph-name="pdf" horiz-adv-x="840" d="M503.808 661.334v279.039c38.838-14.905 74.113-38.029 103.49-67.84l146.272-148.735c29.368-29.819 52.14-65.661 66.798-105.132h-274.575c-11.135 0-21.813 4.495-29.688 12.497-7.873 8.002-12.296 18.854-12.296 30.171zM839.68 512.641v-363.307c-0.068-56.56-22.204-110.782-61.559-150.776-39.352-39.993-92.707-62.491-148.361-62.558h-419.84c-55.654 0.068-109.009 22.565-148.362 62.558s-61.491 94.216-61.558 150.776v597.332c0.067 56.559 22.205 110.782 61.558 150.775s92.708 62.491 148.362 62.559h189.559c6.842 0 13.601-0.555 20.361-1.024v-297.642c0-33.948 13.269-66.505 36.891-90.511 23.62-24.005 55.656-37.489 89.061-37.489h292.88c0.461-6.871 1.008-13.74 1.008-20.693zM503.808 149.334c0 11.315-4.424 22.168-12.296 30.169-7.875 8.002-18.553 12.497-29.688 12.497h-209.92c-11.135 0-21.813-4.495-29.688-12.497-7.873-8.002-12.296-18.854-12.296-30.169 0-11.317 4.424-22.17 12.296-30.171 7.875-8.002 18.553-12.497 29.688-12.497h209.92c11.135 0 21.813 4.495 29.688 12.497 7.873 8.002 12.296 18.854 12.296 30.171zM629.76 320c0 11.315-4.424 22.168-12.296 30.169-7.875 8.002-18.553 12.497-29.688 12.497h-335.872c-11.135 0-21.813-4.495-29.688-12.497-7.873-8.002-12.296-18.854-12.296-30.169s4.424-22.168 12.296-30.169c7.875-8.002 18.553-12.497 29.688-12.497h335.872c11.135 0 21.813 4.495 29.688 12.497 7.873 8.002 12.296 18.854 12.296 30.169z" />
<glyph unicode="&#xe928;" glyph-name="phone" horiz-adv-x="1089" d="M1043.905 490.694c-12.055 0-23.617 4.495-32.141 12.493-8.525 8-13.314 18.85-13.314 30.164-0.096 90.48-38.441 177.228-106.618 241.206s-160.615 99.962-257.031 100.052c-12.057 0-23.62 4.494-32.143 12.494-8.525 8-13.314 18.85-13.314 30.163s4.789 22.163 13.314 30.163c8.523 8 20.086 12.494 32.143 12.494 120.516-0.124 236.058-45.107 321.277-125.078 85.216-79.971 133.151-188.4 133.283-301.496 0-11.314-4.789-22.164-13.314-30.164-8.523-7.998-20.086-12.493-32.143-12.493zM907.536 533.351c0 67.88-28.733 132.981-79.881 180.98-51.15 47.999-120.52 74.964-192.854 74.964-12.057 0-23.62-4.494-32.143-12.494-8.525-8-13.314-18.85-13.314-30.163 0-11.312 4.789-22.162 13.314-30.163 8.523-8 20.086-12.495 32.143-12.495 48.222 0 94.469-17.977 128.569-49.976s53.255-75.399 53.255-120.653c0-11.314 4.789-22.164 13.314-30.164 8.525-7.998 20.086-12.493 32.143-12.493 12.055 0 23.617 4.495 32.143 12.493 8.523 8 13.312 18.85 13.312 30.164zM1006.768 14.467l41.365 44.749c26.328 24.785 41.113 58.357 41.113 93.354 0 34.999-14.785 68.569-41.113 93.356-1.41 1.322-110.777 80.282-110.777 80.282-26.249 23.447-61.113 36.505-97.354 36.457-36.239-0.048-71.066-13.197-97.243-36.714l-86.639-68.508c-70.721 27.469-134.965 67.776-189.039 118.61-54.076 50.832-96.916 111.189-126.063 177.605l72.73 81.049c25.079 24.563 39.106 57.25 39.165 91.269s-13.855 66.749-38.847 91.389c0 0-84.232 102.506-85.639 103.828-25.936 24.496-61.1 38.433-97.894 38.8s-72.265-12.865-98.749-36.838l-52.275-42.657c-308.828-336.226 356.194-955.482 726.298-944.349 37.372-0.203 74.41 6.623 108.925 20.075 34.518 13.451 65.811 33.256 92.036 58.244z" />
<glyph unicode="&#xe929;" horiz-adv-x="1297" d="M1286.712 268.285c-8.66 5.876-20.468 3.606-26.378-5.035-1.591-2.33-39.808-57.039-109.99-57.039s-108.399 54.709-109.952 56.975c-6.991 11.076-24.576 11.064-31.56-0.015-0.382-0.568-39.033-56.962-109.846-56.962-59.353 0-95.836 39.12-106.626 52.569v294.545h483.703c10.501 0 19.009 8.509 19.009 19.009s-8.508 19.009-19.009 19.009h-152.858v138.537c0 125.682-101.036 228.909-225.225 230.11-61.099 0.615-118.717-22.813-162.22-65.897-21.064-20.86-37.499-45.087-48.899-71.441-35.137 80.014-114.154 136.45-205.788 137.338-0.753 0.008-1.507 0.010-2.261 0.010-60.262 0-116.994-23.354-159.961-65.907-43.511-43.094-67.478-100.469-67.478-161.554v-141.199h-230.922c-10.5 0-19.009-8.508-19.009-19.009 0-10.499 8.509-19.007 19.009-19.007h230.922v-75.064c0-10.499 8.509-19.009 19.009-19.009s19.009 8.509 19.009 19.009v254.28c0 50.864 19.963 98.645 56.214 134.545 36.239 35.888 84.18 55.496 135.105 54.891 103.426-0.999 187.573-87.174 187.573-192.095v-138.537h-48.046v141.196c0 76.641-62.331 140.064-138.943 141.377-0.809 0.013-1.608 0.020-2.415 0.020-36.687 0-71.45-14.349-98.115-40.562-27.535-27.067-43.327-64.611-43.327-103.006v-510.167c-25.339 12.727-41.581 30.693-48.048 38.798v143.23c0 10.501-8.509 19.009-19.009 19.009s-19.009-8.508-19.009-19.009v-143.423c-10.825-13.5-47.305-52.593-106.636-52.593-70.184 0-108.399 54.709-109.952 56.975-5.858 8.713-17.668 11.023-26.379 5.168s-11.026-17.666-5.168-26.378c2.024-3.014 50.649-73.783 141.497-73.783 62.11 0 104.483 33.075 125.723 54.965 21.239-21.89 63.616-54.965 125.723-54.965 62.095 0 104.421 33.058 125.641 54.955 21.246-21.891 63.616-54.955 125.711-54.955 62.111 0 104.484 33.075 125.723 54.965 21.239-21.89 63.614-54.965 125.722-54.965 62.095 0 104.421 33.058 125.643 54.955 21.245-21.891 63.614-54.955 125.71-54.955 90.851 0 139.474 70.769 141.496 73.783 5.854 8.689 3.55 20.432-5.113 26.308zM375.455 421.234h292.828v-53.219h-292.828v53.219zM668.283 459.252h-292.828v94.071h292.828v-94.071zM407.417 806.259c19.922 19.583 45.92 30.108 73.225 29.642 56.011-0.961 101.579-47.331 101.579-103.368v-141.198h-206.763v139.027c-0.003 28.269 11.648 55.931 31.959 75.896zM537.59 263.187c-6.984 11.017-24.482 11.023-31.517 0.046-1.589-2.328-39.718-57.021-109.885-57.021-7.264 0-14.16 0.613-20.733 1.664v122.124h292.828v-122.121c-6.574-1.053-13.478-1.667-20.745-1.667-70.182 0-108.399 54.709-109.949 56.975zM706.297 220.208v512.329c0 50.864 19.963 98.645 56.214 134.545 36.239 35.888 84.185 55.496 135.103 54.891 103.427-0.999 187.575-87.174 187.575-192.095v-138.537h-48.046v42.254c0 10.499-8.509 19.009-19.009 19.009s-19.009-8.509-19.009-19.009v-42.254h-206.766v139.027c0 28.268 11.65 55.929 31.962 75.896 19.922 19.583 45.87 30.108 73.225 29.643 56.011-0.961 101.579-47.331 101.579-103.368v-22.912c0-10.499 8.509-19.009 19.009-19.009s19.009 8.509 19.009 19.009v22.912c0 76.642-62.331 140.065-138.943 141.378-0.809 0.013-1.608 0.020-2.415 0.020-36.687 0-71.446-14.349-98.115-40.562-27.532-27.068-43.325-64.612-43.325-103.007v-471.347c-6.487-8.137-22.728-26.095-48.048-38.813z" />
<glyph unicode="&#xe92a;" horiz-adv-x="1297" d="M521.909-25.982c-70.183 0-108.399 54.709-109.952 56.975-6.979 11.010-24.463 11.020-31.505 0.060-1.592-2.33-39.81-57.039-109.991-57.039s-108.398 54.709-109.951 56.975c-5.858 8.714-17.668 11.027-26.379 5.168-8.711-5.856-11.026-17.666-5.168-26.377 2.024-3.012 50.648-73.781 141.497-73.781 62.111 0 104.484 33.075 125.723 54.965 21.239-21.89 63.614-54.965 125.725-54.965 10.499 0 19.009 8.509 19.009 19.009s-8.506 19.009-19.007 19.009z" />
<glyph unicode="&#xe92b;" horiz-adv-x="1297" d="M1160.972 36.099c-8.668 5.866-20.471 3.584-26.375-5.060-1.589-2.328-39.714-57.021-109.885-57.021-70.185 0-108.399 54.709-109.952 56.975-6.987 11.069-24.562 11.066-31.548 0-0.384-0.57-39.129-56.975-109.952-56.975-70.185 0-108.399 54.709-109.952 56.975-6.984 11.015-24.482 11.023-31.517 0.046-0.152-0.22-15.49-22.412-43.786-38.926-9.066-5.294-12.126-16.935-6.832-26.001 5.294-9.062 16.928-12.121 25.999-6.833 17.461 10.194 30.962 22.042 40.349 31.703 21.234-21.89 63.613-54.982 125.739-54.982 62.111 0 104.484 33.075 125.723 54.965 21.239-21.89 63.614-54.965 125.723-54.965 90.861 0 139.394 70.784 141.414 73.796 5.839 8.699 3.521 20.437-5.149 26.303z" />
<glyph unicode="&#xe92d;" glyph-name="share" horiz-adv-x="942" d="M753.555 959.999c31.402 0.003 62.306-7.845 89.907-22.833s51.024-36.638 68.141-62.987c17.119-26.349 27.39-56.561 29.882-87.892 2.49-31.332-2.877-62.789-15.616-91.516s-32.444-53.813-57.33-72.983c-24.885-19.169-54.159-31.812-85.166-36.78s-62.761-2.105-92.381 8.329c-29.62 10.435-56.166 28.109-77.228 51.419l-245.348-140.298c11.491-36.708 11.491-76.057 0-112.767l245.295-140.405c31.187 34.492 74.007 56.238 120.236 61.057 46.23 4.821 92.609-7.625 130.228-34.945 37.622-27.32 63.832-67.588 73.599-113.072s2.4-92.975-20.683-133.353c-23.083-40.38-60.258-70.799-104.382-85.418s-92.090-12.405-134.683 6.216c-42.594 18.622-76.812 52.337-96.086 94.671-19.272 42.336-22.239 90.305-8.331 134.695l-245.295 140.46c-25.549-28.275-59.054-48.14-96.104-56.979-37.052-8.839-75.909-6.236-111.452 7.465s-66.107 37.859-87.663 69.29c-21.556 31.431-33.095 68.659-33.095 106.785 0 38.124 11.538 75.354 33.095 106.785s52.12 55.587 87.663 69.29c35.544 13.701 74.401 16.304 111.452 7.465s70.556-28.705 96.104-56.982l245.295 140.3c-8.825 28.25-10.885 58.185-6.015 87.381 4.872 29.196 16.538 56.836 34.056 80.685s40.395 43.238 66.783 56.599 55.548 20.322 85.121 20.317v0zM753.555 232.645c-28.58 0-55.99-11.364-76.2-31.592s-31.564-47.663-31.564-76.272c0-28.606 11.354-56.041 31.564-76.272 20.21-20.228 47.62-31.592 76.2-31.592 28.582 0 55.99 11.364 76.2 31.592 20.21 20.23 31.564 47.665 31.564 76.272 0 28.609-11.354 56.044-31.564 76.272s-47.618 31.592-76.2 31.592v0zM188.47 555.913c-28.581 0-55.991-11.364-76.2-31.592s-31.563-47.663-31.563-76.272c0-28.606 11.353-56.044 31.563-76.272s47.62-31.592 76.2-31.592c28.581 0 55.991 11.364 76.201 31.592s31.562 47.665 31.562 76.272c0 28.609-11.352 56.044-31.562 76.272s-47.62 31.592-76.201 31.592v0zM753.555 879.182c-28.58 0-55.99-11.364-76.2-31.592s-31.564-47.664-31.564-76.271c0-28.606 11.354-56.044 31.564-76.272s47.62-31.592 76.2-31.592c28.582 0 55.99 11.364 76.2 31.592s31.564 47.665 31.564 76.272c0 28.607-11.354 56.043-31.564 76.271s-47.618 31.592-76.2 31.592v0z" />
<glyph unicode="&#xe92e;" d="M176.552 210.503v-221.537c0-29.255-23.711-52.966-52.966-52.966h-35.31c-29.255 0-52.966 23.711-52.966 52.966v380.098c-21.663 19.403-35.31 47.598-35.31 78.936 0 58.456 47.475 105.931 105.931 105.931h564.966c58.456 0 105.931-47.475 105.931-105.931s-47.475-105.931-105.931-105.931h-17.655v-35.31h112.94c17.143 0 33.227-8.298 43.167-22.281l208.102-292.705c7.662-10.77 8.651-24.911 2.595-36.652s-18.167-19.121-31.373-19.121h-589.63c-17.143 0-33.227 8.298-43.167 22.281l-179.324 252.222zM670.897 377.379c38.983 0 70.621 31.638 70.621 70.621s-31.638 70.621-70.621 70.621h-486.029c16.772-18.75 26.995-43.502 26.995-70.621s-10.205-51.871-26.995-70.603l486.029-0.018zM512 342.069h-335.448v-35.31h335.448v35.31zM617.931 306.759v35.31h-70.621v-35.31h70.621zM176.552 271.448l48.269-67.902h158.473l-48.269 67.902h-158.473zM249.927 168.218l66.631-93.696h158.455l-66.613 93.696h-158.473zM341.663 39.212l42.99-60.469c3.302-4.661 8.669-7.433 14.389-7.433h149.363l-48.287 67.902h-158.455zM591.713-28.69h195.16l-48.269 67.902h-195.16l48.269-67.902zM830.199-28.69h158.473l-48.269 67.902h-158.473l48.269-67.902zM915.297 74.522l-66.631 93.696h-158.455l66.613-93.696h158.473zM823.561 203.546l-42.99 60.469c-3.319 4.661-8.669 7.433-14.389 7.433h-149.363l48.287-67.902h158.455zM573.493 271.448h-195.143l48.269-67.902h195.16l-48.287 67.902zM451.725 168.218l66.613-93.696h195.16l-66.613 93.696h-195.16zM70.621 348.107v-359.142c0-9.746 7.91-17.655 17.655-17.655h35.31c9.746 0 17.655 7.91 17.655 17.655v353.103h-35.31c-12.376 0-24.258 2.136-35.31 6.038zM88.276 516.396c-30.438-7.857-52.966-35.522-52.966-68.396 0-21.080 9.251-40.007 23.905-52.948 8.227-7.256 18.132-12.623 29.060-15.448 5.65-1.448 11.564-2.225 17.655-2.225s12.006 0.777 17.655 2.225c10.929 2.825 20.833 8.192 29.060 15.448 14.654 12.941 23.905 31.868 23.905 52.948 0 32.874-22.528 60.54-52.966 68.396-5.65 1.448-11.564 2.225-17.655 2.225s-12.006-0.777-17.655-2.225z" />
<glyph unicode="&#xe92f;" d="M812.138 871.724c68.202 0 123.586-55.384 123.586-123.586s-55.384-123.586-123.586-123.586c-68.202 0-123.586 55.384-123.586 123.586s55.384 123.586 123.586 123.586zM812.138 836.414c-48.728 0-88.276-39.548-88.276-88.276s39.548-88.276 88.276-88.276c48.728 0 88.276 39.548 88.276 88.276s-39.548 88.276-88.276 88.276zM794.483 942.345c0 9.746 7.91 17.655 17.655 17.655s17.655-7.91 17.655-17.655v-17.655c0-9.746-7.91-17.655-17.655-17.655s-17.655 7.91-17.655 17.655v17.655zM936.978 897.942c6.886 6.903 18.079 6.903 24.964 0 6.903-6.886 6.903-18.079 0-24.964l-12.482-12.482c-6.886-6.886-18.079-6.886-24.964 0s-6.886 18.079 0 24.964l12.482 12.482zM1006.345 765.793c9.746 0 17.655-7.91 17.655-17.655s-7.91-17.655-17.655-17.655h-17.655c-9.746 0-17.655 7.91-17.655 17.655s7.91 17.655 17.655 17.655h17.655zM961.942 623.298c6.903-6.886 6.903-18.079 0-24.964-6.886-6.903-18.079-6.903-24.964 0l-12.482 12.482c-6.886 6.886-6.886 18.079 0 24.964s18.079 6.886 24.964 0l12.482-12.482zM829.793 553.931c0-9.746-7.91-17.655-17.655-17.655s-17.655 7.91-17.655 17.655v17.655c0 9.746 7.91 17.655 17.655 17.655s17.655-7.91 17.655-17.655v-17.655zM687.298 598.334c-6.886-6.903-18.079-6.903-24.964 0-6.903 6.886-6.903 18.079 0 24.964l12.482 12.482c6.886 6.886 18.079 6.886 24.964 0s6.886-18.079 0-24.964l-12.482-12.482zM617.931 730.483c-9.746 0-17.655 7.91-17.655 17.655s7.91 17.655 17.655 17.655h17.655c9.746 0 17.655-7.91 17.655-17.655s-7.91-17.655-17.655-17.655h-17.655zM662.334 872.978c-6.903 6.886-6.903 18.079 0 24.964 6.886 6.903 18.079 6.903 24.964 0l12.482-12.482c6.886-6.886 6.886-18.079 0-24.964s-18.079-6.886-24.964 0l-12.482 12.482z" />
<glyph unicode="&#xe930;" glyph-name="sosal1" d="M609.42 526.405l381.206 433.595h-90.334l-331.003-376.483-264.37 376.483h-304.92l399.78-569.311-399.78-454.689h90.339l349.546 397.579 279.195-397.579h304.92l-414.58 590.405zM485.687 385.674l-362.798 507.783h138.755l638.69-893.939h-138.754l-275.893 386.157z" />
<glyph unicode="&#xe931;" glyph-name="sosal2" d="M1021.397 658.94c-2.4 54.411-11.2 91.816-23.806 124.228-13.005 34.405-33.013 65.208-59.226 90.815-25.613 26.005-56.625 46.212-90.637 59.012-32.608 12.604-69.824 21.403-124.245 23.802-54.825 2.602-72.23 3.204-211.285 3.204-139.053 0-156.459-0.602-211.081-3.001-54.421-2.399-91.833-11.205-124.244-23.802-34.42-13.003-65.229-33.007-90.84-59.215-26.010-25.607-46.213-56.613-59.023-90.62-12.607-32.608-21.407-69.81-23.806-124.221-2.603-54.814-3.204-72.215-3.204-211.245 0-139.027 0.602-156.429 3.001-211.042 2.399-54.409 11.207-91.814 23.814-124.226 13.005-34.406 33.208-65.21 59.218-90.816 25.612-26.005 56.624-46.212 90.637-59.010 32.614-12.606 69.824-21.404 124.251-23.802 54.615-2.409 72.028-3.002 211.083-3.002 139.053 0 156.459 0.593 211.083 3.002 54.419 2.398 91.831 11.196 124.243 23.802 68.832 26.605 123.251 81.015 149.862 149.826 12.599 32.608 21.406 69.818 23.806 124.226 2.4 54.613 3.002 72.015 3.002 211.042 0 139.029-0.203 156.431-2.603 211.042zM929.167 240.858c-2.204-50.010-10.607-77.015-17.609-95.019-17.21-44.61-52.623-80.017-97.242-97.222-18.007-7.002-45.214-15.403-95.038-17.598-54.020-2.406-70.221-2.999-206.876-2.999s-153.060 0.593-206.886 2.999c-50.018 2.195-77.030 10.596-95.036 17.598-22.204 8.205-42.415 21.207-58.82 38.21-17.007 16.606-30.012 36.608-38.218 58.81-7.003 18.003-15.404 45.212-17.601 95.019-2.407 54.010-3.001 70.217-3.001 206.846 0 136.627 0.594 153.030 3.001 206.837 2.196 50.010 10.598 77.015 17.601 95.018 8.206 22.208 21.211 42.407 38.421 58.816 16.6 17.003 36.608 30.006 58.82 38.203 18.008 7.001 45.22 15.402 95.036 17.605 54.022 2.399 70.231 3.001 206.878 3.001 136.858 0 153.060-0.602 206.886-3.001 50.018-2.204 77.030-10.604 95.036-17.605 22.204-8.197 42.415-21.2 58.82-38.203 17.007-16.605 30.012-36.609 38.219-58.816 7.002-18.003 15.405-45.205 17.609-95.018 2.398-54.012 2.999-70.21 2.999-206.837 0-136.629-0.602-152.634-2.999-206.643zM512.198 710.95c-145.25 0-263.102-117.82-263.102-263.053 0-145.231 117.852-263.051 263.102-263.051 145.261 0 263.104 117.82 263.104 263.051 0 145.233-117.843 263.053-263.104 263.053zM512.198 277.263c-94.231 0-170.667 76.414-170.667 170.635 0 94.223 76.435 170.637 170.667 170.637 94.24 0 170.669-76.414 170.669-170.637 0-94.221-76.429-170.635-170.669-170.635zM847.134 721.35c0-33.911-27.503-61.41-61.429-61.41-33.92 0-61.423 27.499-61.423 61.41 0 33.921 27.503 61.411 61.423 61.411 33.926 0 61.429-27.49 61.429-61.411z" />
<glyph unicode="&#xe932;" glyph-name="sosal3" d="M1024-64v375.040c0 184.32-39.68 325.12-254.72 325.12-103.68 0-172.8-56.32-200.96-110.080h-2.56v93.44h-203.52v-683.52h212.48v339.2c0 89.6 16.64 175.36 126.72 175.36 108.8 0 110.080-101.12 110.080-180.48v-332.8h212.48v-1.28zM16.64 619.52h212.48v-683.52h-212.48v683.52zM122.88 960c-67.84 0-122.88-55.040-122.88-122.88s55.040-124.16 122.88-124.16c67.84 0 122.88 56.32 122.88 124.16s-55.040 122.88-122.88 122.88z" />
<glyph unicode="&#xe933;" glyph-name="sosal4" d="M0 448.004c0-209.65 126.072-389.757 306.475-468.942-1.44 35.75-0.257 78.668 8.911 117.568 9.845 41.564 65.881 278.984 65.881 278.984s-16.357 32.693-16.357 81.007c0 75.874 43.978 132.541 98.745 132.541 46.571 0 69.072-34.979 69.072-76.867 0-46.814-29.861-116.84-45.217-181.699-12.827-54.31 27.232-98.609 80.812-98.609 97.006 0 162.344 124.594 162.344 272.213 0 112.214-75.58 196.203-213.048 196.203-155.312 0-252.067-115.821-252.067-245.194 0-44.607 13.153-76.060 33.752-100.421 9.473-11.187 10.788-15.688 7.36-28.534-2.456-9.421-8.096-32.099-10.432-41.087-3.408-12.967-13.916-17.604-25.636-12.817-71.536 29.205-104.852 107.543-104.852 195.603 0 145.441 122.663 319.836 365.926 319.836 195.48 0 324.14-141.451 324.14-293.292 0-200.846-111.664-350.896-276.263-350.896-55.277 0-107.271 29.88-125.085 63.818 0 0-29.723-117.965-36.020-140.744-10.856-39.474-32.103-78.93-51.532-109.681 47.11-13.928 95.982-21 145.109-20.996 282.735 0 511.981 229.23 511.981 512.006 0 282.764-229.246 511.995-511.981 511.995-282.764 0-512.019-229.231-512.019-511.995z" />
<glyph unicode="&#xe934;" glyph-name="sosal5" horiz-adv-x="1045" d="M1044.898 444.882c0 284.561-233.838 515.117-522.449 515.117s-522.449-230.555-522.449-515.117c0-257.099 191.052-470.208 440.817-508.884v359.98h-132.721v148.904h132.721v113.493c0 129.091 77.945 200.397 197.329 200.397 57.175 0 116.962-10.054 116.962-10.054v-126.7h-65.898c-64.884 0-85.13-39.714-85.13-80.447v-96.689h144.896l-23.174-148.904h-121.722v-359.98c249.766 38.676 440.817 251.785 440.817 508.884z" />
<glyph unicode="&#xe935;" d="M512 959.999c-282.76 0-512-229.241-512-512.001s229.24-512 512-512c282.76 0 512 229.24 512 512s-229.24 512.001-512 512.001z" />
<glyph unicode="&#xe936;" d="M568.013 494.333l219.18 254.782h-51.938l-190.316-221.224-152.003 221.224h-175.319l229.859-334.528-229.859-267.176h51.942l200.978 233.618 160.528-233.618h175.319l-238.37 346.923zM288.275 710.012h79.778l367.225-525.279h-79.78l-367.223 525.279z" />
<glyph unicode="&#xe937;" glyph-name="sosal7" d="M1019.423 657.761c-0.573 42.995-8.622 85.565-23.786 125.801-13.151 33.939-33.236 64.762-58.974 90.499s-56.56 45.823-90.499 58.973c-39.721 14.91-81.682 22.972-124.098 23.843-54.613 2.441-71.927 3.122-210.555 3.122-138.631 0-156.4 0-210.614-3.122-42.398-0.877-84.34-8.939-124.041-23.843-33.945-13.141-64.772-33.224-90.511-58.962s-45.821-56.566-58.962-90.511c-14.94-39.689-22.984-81.641-23.786-124.041-2.441-54.667-3.179-71.983-3.179-210.612 0-138.631 0-156.342 3.179-210.614 0.852-42.463 8.856-84.359 23.786-124.155 13.163-33.934 33.261-64.748 59.008-90.476s56.577-45.802 90.522-58.941c39.592-15.508 81.542-24.148 124.040-25.546 54.669-2.441 71.983-3.179 210.614-3.179 138.629 0 156.398 0 210.612 3.179 42.417 0.836 84.38 8.88 124.098 23.786 33.93 13.166 64.746 33.257 90.48 58.993 25.736 25.736 45.827 56.55 58.993 90.48 14.93 39.74 22.936 81.634 23.786 124.155 2.441 54.613 3.179 71.927 3.179 210.614-0.113 138.629-0.113 156.227-3.291 210.555v0zM511.17 186.748c-144.988 0-262.445 117.455-262.445 262.443 0 144.99 117.457 262.445 262.445 262.445 69.603 0 136.357-27.65 185.574-76.869 49.219-49.217 76.869-115.971 76.869-185.576 0-69.603-27.65-136.357-76.869-185.574-49.217-49.219-115.971-76.869-185.574-76.869v0zM784.058 660.146c-8.037-0.006-15.999 1.572-23.427 4.644s-14.179 7.58-19.864 13.264c-5.682 5.684-10.19 12.434-13.264 19.861-3.072 7.429-4.65 15.389-4.644 23.429 0 8.033 1.584 15.987 4.656 23.408 3.074 7.421 7.58 14.165 13.26 19.845s12.424 10.186 19.845 13.26c7.423 3.074 15.377 4.656 23.41 4.656 8.031 0 15.987-1.582 23.408-4.656s14.165-7.58 19.845-13.26c5.68-5.68 10.186-12.423 13.26-19.845s4.656-15.375 4.656-23.408c0-33.834-27.364-61.198-61.141-61.198zM511.233 278.743c94.152 0 170.477 76.326 170.477 170.479 0 94.152-76.326 170.477-170.477 170.477s-170.477-76.326-170.477-170.477c0-94.154 76.326-170.479 170.477-170.479z" />
<glyph unicode="&#xe938;" horiz-adv-x="1007" d="M392.207 261.753v129.598c0 42.917-34.918 77.829-77.827 77.829h-205.006c-42.918 0-77.828-34.912-77.828-77.829v-129.598c-18.312-6.171-31.545-23.498-31.545-43.862v-126.155c0-20.373 13.233-37.693 31.545-43.871v-82.284c0-8.153 6.601-14.754 14.754-14.754h31.537c6.347 0 11.988 4.064 13.993 10.089l28.179 84.522h183.735l28.172-84.522c2.013-6.032 7.645-10.089 14-10.089h31.538c8.145 0 14.754 6.601 14.754 14.754v82.284c18.311 6.171 31.538 23.498 31.538 43.871v126.155c0 20.364-13.226 37.692-31.538 43.862zM109.373 439.67h204.998c26.649 0 48.328-21.677 48.328-48.319v-129.598c-18.313-6.171-31.538-23.498-31.538-43.862v-16.79h-16.79c-8.145 0-14.754-6.601-14.754-14.754 0-8.145 6.609-14.754 14.754-14.754h16.79v-32.551c0-0.561-0.453-1.014-1.014-1.014h-236.543c-0.561 0-1.014 0.453-1.014 1.014v32.551h158.699c8.153 0 14.754 6.609 14.754 14.754 0 8.153-6.601 14.754-14.754 14.754h-158.699v16.79c0 20.364-13.233 37.692-31.537 43.862v129.598c0 26.651 21.67 48.319 48.32 48.319zM67.201-19.666h-6.148v65.11h27.848l-21.701-65.11zM356.552-19.666l-21.709 65.11h27.856v-65.11h-6.147zM394.235 91.735c0-9.26-7.531-16.79-16.782-16.79h-331.154c-9.26 0-16.79 7.531-16.79 16.79v126.155c0 9.253 7.531 16.784 16.79 16.784 9.252 0 16.783-7.531 16.783-16.784v-78.85c0-0.507 0.023-1.014 0.077-1.514 0.792-16.122 14.124-29.009 30.446-29.009h236.543c16.313 0 29.646 12.887 30.445 29.009 0.047 0.5 0.077 1.007 0.077 1.514v78.85c0 9.253 7.531 16.784 16.784 16.784 9.251 0 16.782-7.531 16.782-16.784v-126.155z" />
<glyph unicode="&#xe939;" horiz-adv-x="1007" d="M999.224 704.077l-488.854 252.311c-4.24 2.19-9.281 2.19-13.532 0l-488.845-252.311c-7.177-3.696-10.044-12.479-6.432-19.703l31.537-63.082c2.505-4.994 7.608-8.153 13.202-8.153h204.998c5.587 0 10.697 3.159 13.193 8.153l18.343 36.686 18.343-36.686c2.498-4.994 7.608-8.153 13.194-8.153h174.483v-540.615c-18.313-6.171-31.538-23.5-31.538-43.871v-48.319h-16.79c-8.145 0-14.754-6.609-14.754-14.754 0-8.147 6.609-14.754 14.754-14.754h126.155c8.153 0 14.754 6.607 14.754 14.754 0 8.145-6.601 14.754-14.754 14.754h-16.782v48.319c0 20.371-13.225 37.692-31.538 43.871v540.615h174.476c5.593 0 10.697 3.159 13.193 8.153l18.343 36.686 18.351-36.686c2.496-4.994 7.606-8.153 13.193-8.153h204.998c5.587 0 10.697 3.159 13.194 8.153l31.544 63.082c3.613 7.215 0.745 16-6.431 19.703zM520.392-19.666h-33.567v48.319c0 9.26 7.532 16.784 16.784 16.784s16.784-7.532 16.784-16.784v-48.319zM242.176 642.647h-186.763l-16.783 33.567h220.336l-16.79-33.567zM683.723 642.647h-360.23l-16.784 33.567h307.286c8.145 0 14.754 6.607 14.754 14.754 0 8.145-6.609 14.754-14.754 14.754h-538.487l428.1 220.95 428.092-220.95h-254.632c-8.145 0-14.754-6.609-14.754-14.754 0-8.147 6.609-14.754 14.754-14.754h23.438l-16.784-33.567zM951.803 642.647h-186.771l-16.782 33.567h220.336l-16.784-33.567z" />
<glyph unicode="&#xe93a;" horiz-adv-x="1007" d="M724.374 484.948c-77.69 0-140.901-63.213-140.901-140.902 0-50.147 26.987-96.907 70.434-122.051 7.047-4.081 16.077-1.669 20.156 5.385 4.081 7.056 1.675 16.077-5.379 20.158-34.364 19.879-55.704 56.857-55.704 96.508 0 61.422 49.971 111.401 111.401 111.401 61.422 0 111.401-49.98 111.401-111.401 0-56.426-42.172-103.149-96.647-110.394v25.435l27.218 27.218c5.756 5.763 5.756 15.1 0 20.863-5.763 5.763-15.108 5.763-20.863 0l-6.356-6.356v27.465c0 8.145-6.609 14.754-14.754 14.754-8.147 0-14.754-6.609-14.754-14.754v-221.788h-48.321c-4.234 0-8.261-1.821-11.064-4.996-2.798-3.166-4.104-7.391-3.582-11.588l14.047-112.346c1.907-15.237 14.924-26.733 30.285-26.733h66.778c15.36 0 28.385 11.496 30.284 26.733l14.047 112.346c0.522 4.197-0.776 8.422-3.581 11.588-2.797 3.174-6.824 4.996-11.058 4.996h-48.328v97.423c70.789 7.401 126.155 67.416 126.155 140.134 0 77.698-63.213 140.902-140.918 140.902zM758.771-18.774c-0.062-0.507-0.492-0.891-1.007-0.891h-66.77c-0.515 0-0.945 0.384-1.007 0.891l-11.972 95.756h92.729l-11.972-95.756z" />
<glyph unicode="&#xe93b;" horiz-adv-x="1007" d="M140.91 329.292h141.923c8.153 0 14.754 6.601 14.754 14.754 0 8.147-6.601 14.754-14.754 14.754h-141.923c-8.146 0-14.754-6.607-14.754-14.754 0-8.153 6.609-14.754 14.754-14.754z" />
<glyph unicode="&#xe93c;" glyph-name="testimonials" horiz-adv-x="1164" d="M0.247 218.159c0-155.837 124.012-282.159 276.996-282.159 152.988 0 276.999 126.322 276.999 282.159s-124.011 282.156-276.999 282.156c-31.439 0-61.536-5.583-89.711-15.421 62.335 364.174 341.128 599.025 82.689 405.738-286.571-214.334-270.281-663.851-269.961-672.087 0-0.128-0.014-0.244-0.014-0.386zM609.638 218.159c0-155.837 124.013-282.159 276.999-282.159s276.999 126.322 276.999 282.159c0 155.837-124.016 282.156-277.001 282.156-31.444 0-61.535-5.583-89.712-15.421 62.336 364.174 341.129 599.025 82.69 405.738-286.571-214.334-270.285-663.851-269.961-672.087 0-0.128-0.014-0.244-0.014-0.386z" />
<glyph unicode="&#xe93d;" glyph-name="user" horiz-adv-x="758" d="M549.081 362.666h-340.402c-55.325-0.068-108.364-22.372-147.484-62.022-39.12-39.647-61.128-93.405-61.194-149.477v-215.167h757.76v215.167c-0.068 56.072-22.073 109.83-61.194 149.477-39.121 39.649-92.16 61.954-147.485 62.022zM378.88 448c139.5 0 252.586 114.614 252.586 256s-113.086 256-252.586 256c-139.5 0-252.587-114.615-252.587-256s113.087-256 252.587-256z" />
</font>
</defs>
</svg>
