<?xml version="1.0" standalone="no"?>
<!DOCTYPE svg PUBLIC "-//W3C//DTD SVG 1.1//EN" "http://www.w3.org/Graphics/SVG/1.1/DTD/svg11.dtd" >
<svg xmlns="http://www.w3.org/2000/svg">
<metadata>Generated by IcoMoon</metadata>
<defs>
<font id="icomoon" horiz-adv-x="1024">
<font-face units-per-em="1024" ascent="960" descent="-64" />
<missing-glyph horiz-adv-x="1024" />
<glyph unicode="&#x20;" horiz-adv-x="512" d="" />
<glyph unicode="&#xe900;" glyph-name="1" horiz-adv-x="983" d="M826.411 305.871c-0.020 17.644-7.039 34.56-19.515 47.036s-29.393 19.495-47.036 19.515h-201.4c27.814 67.41 27.914 143.069 0.281 210.553-0.24 0.592-0.518 1.169-0.829 1.729-5.679 10.22-14.098 18.651-24.31 24.347-10.211 5.698-21.811 8.43-33.491 7.893s-22.979-4.323-32.625-10.93c-9.646-6.609-17.256-15.778-21.975-26.474-0.743-1.69-1.19-3.496-1.321-5.337l-4.753-67.494c-7.117-38.789-28.047-73.685-58.915-98.228-12.364-4.34-35-19.692-94.052-75.882v1.679c-0.008 8.845-3.527 17.328-9.783 23.583-6.257 6.257-14.737 9.775-23.585 9.783h-167.97c-8.846-0.010-17.328-3.529-23.583-9.783s-9.774-14.737-9.783-23.583v-335.2c0.006-8.849 3.524-17.332 9.779-23.591 6.256-6.257 14.739-9.777 23.587-9.785h167.96c8.847 0.008 17.33 3.527 23.585 9.781 6.257 6.257 9.775 14.737 9.783 23.585v1.47c46.189-10.189 70.294-22.297 98.413-48.417 11.055-10.516 25.778-16.3 41.036-16.12h260.35c12.634-0.004 25.008 3.588 35.674 10.359s19.184 16.439 24.556 27.873c5.374 11.434 7.379 24.162 5.782 36.696-1.595 12.532-6.73 24.351-14.797 34.073 20.777 12.497 35.559 34.873 35.559 58.647 0.016 14.791-4.919 29.161-14.021 40.821 21.162 12.534 36.348 35.672 36.348 60.287 0.016 13.875-4.329 27.406-12.423 38.676 12.751 4.731 23.749 13.249 31.521 24.408 7.77 11.162 11.942 24.431 11.956 38.031zM254.458-0.93c-0.012-0.358-0.162-0.698-0.416-0.952-0.254-0.252-0.594-0.401-0.952-0.414h-167.96c-0.358 0.012-0.698 0.162-0.952 0.414-0.254 0.254-0.402 0.594-0.415 0.952v335.2c0.014 0.358 0.162 0.696 0.415 0.95s0.593 0.401 0.951 0.416h167.96c0.358-0.014 0.698-0.162 0.952-0.416 0.254-0.252 0.401-0.592 0.416-0.95v-335.2zM759.859 271.319h-55.611c-4.243 0-8.313-1.686-11.313-4.686s-4.686-7.070-4.686-11.313c0-4.243 1.686-8.313 4.686-11.313s7.070-4.688 11.313-4.688h24.556c9.161-0.012 17.943-3.656 24.418-10.134 6.478-6.476 10.121-15.258 10.136-24.418 0-18-17.789-36.311-36.045-37.892-6.722 2.218-13.756 3.344-20.834 3.338-4.243 0-8.313-1.686-11.313-4.686s-4.686-7.070-4.686-11.313c0-4.243 1.686-8.313 4.686-11.313 3-3.002 7.070-4.688 11.313-4.688 4.047 0.004 8.061-0.705 11.86-2.095 0.422-0.186 0.85-0.354 1.29-0.502 6.326-2.613 11.737-7.045 15.546-12.732s5.847-12.376 5.853-19.223c0-17.639-18.495-35.6-37.327-36.872-5.687 1.544-11.555 2.324-17.447 2.32-4.243 0-8.313-1.686-11.313-4.686s-4.686-7.070-4.686-11.313c0-4.243 1.686-8.313 4.686-11.315 3-3 7.070-4.686 11.313-4.686 3.351 0.002 6.685-0.483 9.894-1.444 0.379-0.135 0.764-0.26 1.157-0.369 7.766-2.617 14.348-7.909 18.573-14.934 4.225-7.023 5.814-15.319 4.487-23.407-1.329-8.088-5.487-15.44-11.735-20.744s-14.178-8.215-22.374-8.212h-260.35c-3.551-0.080-7.082 0.549-10.39 1.847-3.305 1.298-6.32 3.242-8.868 5.716-33.98 31.57-63.683 45.943-120.191 57.7v254.906l2.839 2.763c78.533 76.265 97.769 86.168 101.853 87.37 2.372 0.487 4.604 1.507 6.525 2.98 38.672 29.622 64.86 72.643 73.413 120.601 0.098 0.561 0.17 1.126 0.211 1.696l4.6 65.29c2.599 4.786 6.42 8.8 11.076 11.633 4.653 2.83 9.976 4.377 15.421 4.483 5.448 0.104 10.826-1.235 15.585-3.883 4.762-2.648 8.735-6.511 11.518-11.194 13.361-33.032 19.358-68.579 17.572-104.167-1.784-35.586-11.309-70.357-27.91-101.886-1.28-2.439-1.911-5.167-1.827-7.92 0.082-2.753 0.874-5.437 2.298-7.797 1.425-2.357 3.434-4.307 5.835-5.659 2.398-1.354 5.106-2.064 7.86-2.064h226.533c9.118-0.070 17.838-3.742 24.263-10.213 6.423-6.472 10.027-15.221 10.027-24.34s-3.604-17.867-10.027-24.34c-6.425-6.472-15.145-10.144-24.263-10.211v0.010zM200.22 283.081v-1.931c0-4.243-1.686-8.313-4.686-11.313s-7.070-4.686-11.314-4.686c-4.243 0-8.313 1.686-11.314 4.686s-4.686 7.070-4.686 11.313v1.931c0 4.243 1.686 8.313 4.686 11.313s7.070 4.686 11.314 4.686c4.243 0 8.313-1.686 11.314-4.686s4.686-7.070 4.686-11.313zM680.321 822.836c-0.965 2.97-2.779 5.592-5.216 7.545s-5.392 3.148-8.501 3.441l-114.678 10.8-45.72 105.728c-1.239 2.866-3.289 5.307-5.9 7.022-2.609 1.715-5.663 2.628-8.786 2.628s-6.177-0.914-8.786-2.628c-2.609-1.715-4.661-4.156-5.9-7.022l-45.713-105.726-114.676-10.8c-3.109-0.293-6.064-1.489-8.501-3.441s-4.25-4.574-5.214-7.544c-0.965-2.97-1.040-6.157-0.215-9.168 0.823-3.012 2.511-5.716 4.854-7.781l86.426-76.144-25.164-112.4c-0.682-3.045-0.457-6.226 0.647-9.146 1.102-2.922 3.037-5.456 5.562-7.291 2.527-1.835 5.534-2.892 8.653-3.039 3.119-0.145 6.214 0.623 8.901 2.214l99.127 58.661 99.125-58.665c2.687-1.591 5.779-2.359 8.899-2.214 3.119 0.147 6.128 1.204 8.653 3.039 2.527 1.835 4.461 4.368 5.564 7.291 1.102 2.92 1.327 6.101 0.645 9.148l-25.162 112.398 86.426 76.145c2.345 2.063 4.035 4.767 4.862 7.779 0.825 3.012 0.752 6.2-0.211 9.171zM560.994 747.493c-2.15-1.894-3.754-4.334-4.639-7.059-0.887-2.728-1.024-5.642-0.397-8.44l19.149-85.531-75.426 44.642c-2.468 1.46-5.284 2.232-8.151 2.232s-5.683-0.772-8.149-2.232l-75.428-44.642 19.139 85.537c0.627 2.798 0.489 5.712-0.395 8.44-0.887 2.726-2.488 5.165-4.641 7.059l-65.761 57.94 87.259 8.22c2.855 0.269 5.585 1.3 7.903 2.986 2.32 1.685 4.143 3.963 5.282 6.594l34.781 80.442 34.783-80.448c1.137-2.631 2.961-4.909 5.28-6.594 2.32-1.685 5.048-2.716 7.903-2.986l87.261-8.22-65.753-57.941zM962.007 729.080c-0.965 2.97-2.779 5.593-5.216 7.545s-5.392 3.148-8.501 3.441l-80.814 7.612-32.221 74.506c-1.239 2.866-3.289 5.307-5.9 7.022-2.609 1.715-5.663 2.628-8.786 2.628s-6.177-0.914-8.786-2.628c-2.609-1.715-4.661-4.156-5.9-7.022l-32.211-74.506-80.816-7.612c-3.109-0.293-6.064-1.489-8.503-3.441-2.437-1.952-4.25-4.575-5.214-7.545s-1.040-6.156-0.215-9.169c0.825-3.013 2.513-5.716 4.856-7.78l60.905-53.658-17.732-79.213c-0.682-3.047-0.457-6.228 0.647-9.15 1.104-2.92 3.039-5.456 5.566-7.291 2.525-1.835 5.536-2.89 8.655-3.035s6.214 0.625 8.901 2.216l69.853 41.343 69.847-41.343c2.689-1.591 5.782-2.359 8.901-2.214 3.121 0.145 6.128 1.202 8.655 3.037s4.461 4.37 5.564 7.291c1.104 2.922 1.327 6.103 0.645 9.15l-17.734 79.21 60.903 53.66c2.343 2.062 4.030 4.768 4.854 7.778s0.752 6.197-0.213 9.167h0.010zM868.207 676.221c-2.152-1.894-3.754-4.334-4.639-7.059-0.887-2.728-1.024-5.642-0.397-8.44l11.719-52.339-46.168 27.316c-2.468 1.462-5.284 2.232-8.151 2.232s-5.681-0.77-8.149-2.232l-46.156-27.316 11.717 52.339c0.627 2.798 0.489 5.712-0.395 8.44-0.887 2.726-2.488 5.165-4.641 7.059l-40.245 35.455 53.4 5.032c2.855 0.268 5.585 1.3 7.905 2.986 2.318 1.686 4.143 3.963 5.282 6.595l21.283 49.23 21.285-49.23c1.137-2.632 2.961-4.909 5.282-6.595 2.318-1.686 5.048-2.718 7.903-2.986l53.4-5.032-40.233-35.455zM290.206 740.065l-80.814 7.612-32.233 74.506c-1.239 2.866-3.29 5.307-5.9 7.022s-5.664 2.628-8.786 2.628c-3.123 0-6.177-0.914-8.787-2.628s-4.66-4.156-5.899-7.022l-32.212-74.506-80.814-7.612c-3.109-0.293-6.065-1.489-8.502-3.441s-4.25-4.575-5.215-7.545c-0.965-2.97-1.040-6.156-0.215-9.169s2.513-5.716 4.856-7.78l60.904-53.658-17.734-79.213c-0.681-3.047-0.456-6.228 0.648-9.148s3.038-5.454 5.564-7.289c2.526-1.835 5.534-2.89 8.653-3.037 3.119-0.145 6.212 0.625 8.899 2.214l69.854 41.343 69.849-41.343c2.687-1.589 5.779-2.359 8.899-2.212 3.119 0.145 6.128 1.202 8.653 3.037 2.527 1.835 4.461 4.37 5.564 7.291s1.327 6.101 0.645 9.148l-17.734 79.21 60.905 53.66c2.343 2.064 4.033 4.768 4.856 7.78 0.825 3.013 0.752 6.199-0.213 9.169-0.967 2.97-2.779 5.593-5.216 7.545s-5.392 3.148-8.501 3.441l0.027-0.004zM210.119 676.221c-2.152-1.894-3.754-4.334-4.641-7.059-0.885-2.728-1.022-5.642-0.395-8.44l11.717-52.339-46.177 27.316c-2.468 1.462-5.283 2.232-8.15 2.232s-5.682-0.77-8.15-2.232l-46.156-27.316 11.718 52.339c0.626 2.798 0.489 5.712-0.397 8.44-0.886 2.726-2.488 5.165-4.639 7.059l-40.244 35.455 53.4 5.032c2.855 0.268 5.584 1.3 7.904 2.986s4.144 3.963 5.282 6.595l21.282 49.228 21.284-49.228c1.138-2.632 2.961-4.909 5.281-6.595s5.049-2.718 7.903-2.986l53.399-5.032-40.221-35.455z" />
<glyph unicode="&#xe901;" glyph-name="2" d="M446.493 444.166l-4.42-2.912c-17.963-11.839-41.177-11.839-59.144 0.004l-4.415 2.908c-6.916 4.553-16.22 2.64-20.777-4.276-4.559-6.918-2.644-16.22 4.276-20.779l4.409-2.904c13.998-9.226 30.038-13.84 46.082-13.84 16.040 0 32.082 4.614 46.076 13.836l4.415 2.908c6.918 4.557 8.835 13.861 4.276 20.779-4.561 6.92-13.865 8.831-20.779 4.276zM661.993 419.113c6.918 4.557 8.835 13.861 4.276 20.779-4.559 6.92-13.861 8.831-20.777 4.276l-4.42-2.912c-17.963-11.839-41.177-11.839-59.144 0.004l-4.415 2.908c-6.916 4.553-16.22 2.64-20.777-4.276-4.559-6.918-2.644-16.22 4.274-20.779l4.411-2.904c13.998-9.226 30.038-13.84 46.082-13.84 16.040 0 32.082 4.614 46.076 13.836l4.413 2.908zM562.493 269.353c6.918 4.557 8.835 13.861 4.276 20.779-4.559 6.92-13.861 8.831-20.777 4.276l-4.42-2.912c-17.963-11.839-41.177-11.839-59.144 0.004l-4.415 2.908c-6.916 4.553-16.22 2.64-20.777-4.276-4.559-6.918-2.644-16.22 4.276-20.779l4.409-2.904c13.998-9.226 30.038-13.84 46.082-13.84 16.040 0 32.082 4.614 46.076 13.836l4.413 2.908zM905.187 810.68c8.284 0 15.002 6.714 15.002 15v83.424c0 28.064-22.835 50.896-50.899 50.896h-85.385c-28.066 0-50.899-22.832-50.899-50.896v-167.826c-55.652 62.89-135.508 99.402-221.002 99.402-85.508 0-165.351-36.548-221.002-99.458v67.818c0 8.286-6.715 15-15 15s-15.002-6.714-15.002-15v-71.398h-127.179v171.461c-0.002 11.52 9.374 20.896 20.896 20.896h85.385c11.522 0 20.896-9.376 20.896-20.896v-33.824c0-8.286 6.717-15 15.002-15s15 6.714 15 15v33.824c0 28.064-22.833 50.896-50.897 50.896h-85.385c-28.064 0-50.898-22.832-50.898-50.896v-254.405c0-62.435 9.608-124.252 28.556-183.742l10.080-31.644c13.030-40.909 35.226-79.284 64.189-110.977l88.91-97.29c8.559-9.363 20.742-14.756 33.427-14.795h0.139c4.495 0 8.925 0.684 13.162 1.968 18.256-18.829 39.244-35.269 62.581-48.667v-41.925c0-20.165-13.494-38.281-32.817-44.050l-148.4-44.331c-16.413-4.901-31.62-12.634-45.206-22.987-15.386-11.719-21.314-31.191-15.1-49.601 6.288-18.625 23.002-30.659 42.584-30.659h612.155c19.583 0 36.295 12.034 42.58 30.654 6.214 18.409 0.289 37.88-15.098 49.603-13.586 10.351-28.795 18.084-45.206 22.985l-32.377 9.673c-7.938 2.376-16.294-2.142-18.665-10.080s2.14-16.294 10.078-18.665l32.377-9.673c12.933-3.863 24.914-9.953 35.613-18.104 7.604-5.794 5.638-13.822 4.854-16.144-0.811-2.402-4.229-10.248-14.156-10.248h-612.155c-9.924 0-13.344 7.846-14.154 10.248-0.784 2.322-2.75 10.351 4.856 16.144 10.697 8.151 22.678 14.242 35.609 18.104l148.4 44.331c31.93 9.54 54.233 39.473 54.233 72.796v25.801c25.217-11.631 52.5-17.455 79.786-17.455 25.395 0 50.78 5.052 74.486 15.102v-23.448c0-33.323 22.301-63.259 54.231-72.796l50.018-14.942c7.934-2.374 16.294 2.142 18.668 10.078 2.372 7.938-2.14 16.296-10.080 18.668l-50.018 14.942c-19.323 5.771-32.819 23.886-32.819 44.050v39.117l0.791 0.457c0 0 0 0.002 0.002 0.002 23.886 13.814 45.273 30.898 63.799 50.452 3.621-0.918 7.363-1.405 11.153-1.405h0.141c12.683 0.041 24.869 5.433 33.423 14.795l88.914 97.29c28.961 31.695 51.159 70.068 64.186 110.977l10.080 31.644c18.95 59.488 28.557 121.307 28.557 183.742v110.186c0 8.286-6.717 15-15.002 15s-15-6.714-15-15v-27.24h-127.179v171.463c0 11.522 9.374 20.896 20.898 20.896h85.385c11.522 0 20.898-9.376 20.898-20.896v-83.424c-0.002-8.286 6.711-15 14.998-15zM733.006 692.189v-54.673c0-9.382-3.619-18.242-10.187-24.945-1.804-1.841-3.51-3.754-5.173-5.698-45.216 65.137-120.523 107.88-205.642 107.88-2.122 0-4.231-0.053-6.343-0.106 48.222 22.907 100.88 36.344 154.231 39.178l15.303 0.815c22.163-17.316 41.732-38.294 57.811-62.452zM512.004 810.68c42.818 0 84.058-10.208 120.846-29.016-61.616-6.918-121.666-26.933-175.055-58.532l-67.566-39.989c-0.422-0.25-0.825-0.518-1.214-0.799-32.893-18.653-61.166-44.532-82.649-75.477-1.665 1.946-3.373 3.86-5.181 5.706-6.568 6.703-10.185 15.561-10.185 24.945v54.671c49.416 74.241 131.795 118.491 221.004 118.491zM228.792 348.572c-26.058 28.514-46.028 63.039-57.75 99.844l-10.080 31.644c-18.010 56.543-27.14 115.296-27.14 174.637v52.943h127.179v-70.124c0-17.283 6.664-33.599 18.762-45.943 14.95-15.256 23.185-35.42 23.185-56.781v-93.772c0-9.114-5.704-16.904-13.724-20.036l-20.91 36.164c-9.226 15.958-14.103 34.132-14.103 52.564v27.648c0 8.286-6.715 15-15 15s-15-6.713-15-15v-27.642c0-23.699 6.269-47.067 18.129-67.58l100.166-172.638c3.439-5.917 2.623-13.265-2.023-18.287-2.974-3.215-7.023-4.952-11.405-4.964-4.381 0.014-8.421 1.802-11.377 5.036l-88.91 97.286zM604.914 193.169l-10.052-5.812c-48.589-28.103-109.22-28.57-158.237-1.217l-14.113 7.875c-20.734 11.569-39.408 25.84-55.763 42.179 9.777 14.32 10.637 32.989 1.7 48.376l-64.090 110.326c16.933 8.45 28.588 25.954 28.588 46.129v93.772c0 15.376-3.144 30.29-9.071 44.022 38.687 63.457 108.528 105.937 188.129 105.937s149.443-42.476 188.131-105.931c-5.929-13.736-9.075-28.649-9.075-44.030v-93.772c0-20.177 11.655-37.681 28.588-46.131l-64.090-110.324c-9.271-15.958-7.989-35.447 2.841-49.953-15.739-15.948-33.64-29.966-53.488-41.445zM890.188 707.639v-52.943c0-59.341-9.132-118.096-27.14-174.637l-10.080-31.644c-11.723-36.805-31.693-71.33-57.75-99.844l-88.912-97.29c-2.955-3.232-6.996-5.022-11.377-5.036-0.014 0-0.033 0-0.049 0-4.36 0-8.393 1.763-11.356 4.964-4.649 5.022-5.46 12.37-2.023 18.287l100.166 172.638c11.862 20.513 18.129 43.88 18.129 67.58v27.646c0 8.286-6.715 15-15 15s-15-6.713-15-15v-27.642c0-18.432-4.876-36.608-14.103-52.564l-20.91-36.164c-8.018 3.131-13.724 10.922-13.724 20.036v93.772c0 21.361 8.235 41.523 23.185 56.779 12.1 12.345 18.762 28.662 18.762 45.945v70.117h127.181z" />
<glyph unicode="&#xe902;" glyph-name="3" horiz-adv-x="1061" d="M1038.371 502.645l-72.313 74.873c-5.583 5.762-8.245 13.932-7.119 21.87l14.519 103.040c5.967 42.251-22.303 81.097-64.296 88.446l-102.502 17.976c-7.914 1.384-14.877 6.452-18.617 13.572l-48.704 91.876c-19.999 37.743-65.732 52.596-104.091 33.802l-93.438-45.733c-7.221-3.534-15.824-3.534-23.045 0l-93.438 45.733c-38.384 18.796-84.067 3.944-104.091-33.802l-48.704-91.876c-3.791-7.221-10.602-12.139-18.615-13.572l-102.478-17.976c-42.021-7.323-70.265-46.195-64.299-88.419l14.494-103.066c1.127-8.042-1.433-16.029-7.117-21.868l-72.314-74.875c-29.601-30.627-29.601-78.663 0-109.288l72.314-74.875c5.582-5.76 8.244-13.93 7.117-21.868l-14.518-103.042c-5.966-42.251 22.303-81.095 64.297-88.444l102.502-17.977c7.914-1.384 14.877-6.453 18.617-13.572l48.704-91.877c20.025-37.744 65.732-52.595 104.091-33.801l93.438 45.733c7.221 3.535 15.824 3.535 23.045 0l93.438-45.733c11.242-5.506 23.097-8.119 34.774-8.119 28.167 0 55.183 15.236 69.316 41.918l48.704 91.877c3.791 7.221 10.6 12.136 18.615 13.572l102.479 17.975c42.021 7.323 70.265 46.195 64.296 88.421l-14.493 103.066c-1.126 8.040 1.434 16.027 7.117 21.868l72.315 74.873c29.606 30.629 29.606 78.665 0.004 109.292zM1000.653 429.769l-72.315-74.821c-16.976-17.565-24.735-41.483-21.328-65.657l14.493-103.040c1.997-14.084-7.426-27.041-21.407-29.5l-102.528-17.975c-24.071-4.226-44.429-19.052-55.874-40.638l-48.702-91.851c-6.658-12.599-21.87-17.565-34.697-11.293l-93.438 45.76c-10.807 5.274-22.689 7.938-34.567 7.938-11.88 0-23.764-2.664-34.569-7.963l-93.438-45.707c-12.778-6.299-28.037-1.333-34.695 11.266l-48.704 91.877c-11.447 21.612-31.83 36.411-55.925 40.613l-102.477 18c-13.98 2.459-23.405 15.389-21.433 29.475l14.519 103.040c3.406 24.174-4.354 48.090-21.305 65.629l-72.338 74.849c-9.858 10.244-9.858 26.22 0 36.464l72.314 74.823c16.977 17.565 24.735 41.481 21.329 65.655l-14.494 103.042c-1.997 14.084 7.426 27.041 21.406 29.499l102.53 17.977c24.069 4.226 44.427 19.050 55.872 40.637l48.704 91.851c6.658 12.598 21.919 17.514 34.695 11.293l93.438-45.76c21.612-10.55 47.525-10.575 69.138 0.025l93.438 45.706c12.804 6.299 28.039 1.332 34.697-11.266l48.702-91.876c11.447-21.611 31.83-36.413 55.925-40.612l102.477-18.002c13.981-2.458 23.406-15.387 21.435-29.473l-14.519-103.042c-3.407-24.174 4.354-48.088 21.305-65.629l72.338-74.847c9.858-10.244 9.858-26.222-0.002-36.464zM706.156 623.867c-10.244 10.244-26.834 10.244-37.078 0l-314.655-314.653c-10.242-10.244-10.242-26.836 0-37.080 5.122-5.12 11.831-7.682 18.54-7.682s13.418 2.56 18.54 7.682l314.653 314.655c10.242 10.244 10.242 26.834 0 37.078zM504.168 579.054c0 57.872-47.066 104.938-104.936 104.938-57.872 0-104.938-47.066-104.938-104.938s47.066-104.936 104.938-104.936c57.871 0 104.936 47.066 104.936 104.936zM346.739 579.054c0 28.937 23.557 52.495 52.495 52.495 28.935 0 52.493-23.557 52.493-52.495 0-28.935-23.557-52.493-52.493-52.493-28.939 0-52.495 23.557-52.495 52.493zM661.338 421.883c-57.871 0-104.936-47.066-104.936-104.938s47.066-104.936 104.936-104.936c57.872 0 104.938 47.066 104.938 104.936 0 57.872-47.066 104.938-104.938 104.938zM661.338 264.453c-28.935 0-52.493 23.557-52.493 52.495 0 28.935 23.557 52.493 52.493 52.493s52.495-23.557 52.495-52.493c0-28.937-23.557-52.495-52.495-52.495z" />
<glyph unicode="&#xe903;" glyph-name="ant-design_user-outlined" d="M343.228 118.858h680.772v-73.142h-680.772v73.142zM94.37 82.284l-94.005-94.35 51.375-51.934 145.744 146.284-145.744 146.29-51.739-51.57 94.37-94.72zM343.228 484.572h680.772v-73.143h-680.772v73.143zM94.37 448l-94.005-94.356 51.375-51.928 145.744 146.284-145.744 146.286-51.739-51.566 94.37-94.72zM343.228 850.286h680.772v-73.143h-680.772v73.143zM94.37 813.714l-94.005-94.354 51.375-51.932 145.744 146.286-145.744 146.286-51.739-51.566 94.37-94.72z" />
<glyph unicode="&#xe904;" glyph-name="book" horiz-adv-x="883" d="M66.336 853.302h748.435c11.758 0 25.302-11.87 25.302-30.258v-822.783c0-18.388-13.543-30.257-25.302-30.257h-746.782c-11.759 0-25.301 11.87-25.301 30.257v39.908c12.072-8.162 26.384-12.954 41.823-12.954h578.26v35.31h-578.26c-18.474 0-36.407 14.378-41.823 35.31v14.774h-1.652v710.434c0 18.388 13.543 30.258 25.301 30.258zM7.376 94.114v-93.853c0-34.481 26.11-65.568 60.612-65.568h746.782c34.502 0 60.612 31.087 60.612 65.568v822.783c0 34.481-26.11 65.568-60.612 65.568h-748.435c-34.502 0-60.612-31.087-60.612-65.568v-712.086c0-5.736 0.569-11.373 1.652-16.843zM5.724 717.307c0 9.749 7.904 17.655 17.655 17.655h836c9.751 0 17.655-7.906 17.655-17.655 0-9.751-7.904-17.655-17.655-17.655h-836c-9.751 0-17.655 7.904-17.655 17.655zM108.155 623.132c0 9.749 7.904 17.655 17.655 17.655h97.478c9.751 0 17.655-7.906 17.655-17.655v-97.48c0-9.751-7.904-17.655-17.655-17.655h-97.478c-9.751 0-17.655 7.904-17.655 17.655v97.48zM143.466 605.477v-62.169h62.168v62.169h-62.168zM288.242 623.132c0 9.749 7.904 17.655 17.655 17.655h97.478c9.751 0 17.655-7.906 17.655-17.655v-97.48c0-9.751-7.904-17.655-17.655-17.655h-97.478c-9.751 0-17.655 7.904-17.655 17.655v97.48zM323.552 605.477v-62.169h62.167v62.169h-62.167zM466.672 623.132c0 9.749 7.904 17.655 17.655 17.655h97.478c9.751 0 17.655-7.906 17.655-17.655v-97.48c0-9.751-7.904-17.655-17.655-17.655h-97.478c-9.751 0-17.655 7.904-17.655 17.655v97.48zM501.982 605.477v-62.169h62.167v62.169h-62.167zM645.113 623.132c0 9.749 7.904 17.655 17.655 17.655h97.478c9.751 0 17.655-7.906 17.655-17.655v-97.48c0-9.751-7.904-17.655-17.655-17.655h-97.478c-9.751 0-17.655 7.904-17.655 17.655v97.48zM680.423 605.477v-62.169h62.167v62.169h-62.167zM108.155 431.478c0 9.751 7.904 17.655 17.655 17.655h97.478c9.751 0 17.655-7.904 17.655-17.655v-97.478c0-9.751-7.904-17.655-17.655-17.655h-97.478c-9.751 0-17.655 7.904-17.655 17.655v97.478zM143.466 413.823v-62.167h62.168v62.167h-62.168zM288.242 431.478c0 9.751 7.904 17.655 17.655 17.655h97.478c9.751 0 17.655-7.904 17.655-17.655v-97.478c0-9.751-7.904-17.655-17.655-17.655h-97.478c-9.751 0-17.655 7.904-17.655 17.655v97.478zM323.552 413.823v-62.167h62.167v62.167h-62.167zM466.672 431.478c0 9.751 7.904 17.655 17.655 17.655h97.478c9.751 0 17.655-7.904 17.655-17.655v-97.478c0-9.751-7.904-17.655-17.655-17.655h-97.478c-9.751 0-17.655 7.904-17.655 17.655v97.478zM501.982 413.823v-62.167h62.167v62.167h-62.167zM645.113 431.478c0 9.751 7.904 17.655 17.655 17.655h97.478c9.751 0 17.655-7.904 17.655-17.655v-97.478c0-9.751-7.904-17.655-17.655-17.655h-97.478c-9.751 0-17.655 7.904-17.655 17.655v97.478zM680.423 413.823v-62.167h62.167v62.167h-62.167zM108.155 241.479c0 9.751 7.904 17.655 17.655 17.655h97.478c9.751 0 17.655-7.904 17.655-17.655v-97.478c0-9.751-7.904-17.655-17.655-17.655h-97.478c-9.751 0-17.655 7.904-17.655 17.655v97.478zM143.466 223.823v-62.167h62.168v62.167h-62.168zM288.251 241.479c0 9.751 7.904 17.655 17.655 17.655h97.478c9.751 0 17.655-7.904 17.655-17.655v-97.478c0-9.751-7.904-17.655-17.655-17.655h-97.478c-9.751 0-17.655 7.904-17.655 17.655v97.478zM323.561 223.823v-62.167h62.167v62.167h-62.167zM466.681 241.479c0 9.751 7.904 17.655 17.655 17.655h97.478c9.751 0 17.655-7.904 17.655-17.655v-97.478c0-9.751-7.904-17.655-17.655-17.655h-97.478c-9.751 0-17.655 7.904-17.655 17.655v97.478zM501.991 223.823v-62.167h62.167v62.167h-62.167zM644.597 925.998c-16.276 0-28.607-13.16-28.607-28.606v-52.869c0-16.276 13.16-28.606 28.607-28.606 9.751 0 17.655-7.904 17.655-17.655s-7.904-17.656-17.655-17.656c-34.12 0-63.917 27.323-63.917 63.917v52.869c0 34.12 27.323 63.916 63.917 63.916 34.952 0 62.263-28.155 62.263-63.916v-26.435c0-9.751-7.904-17.655-17.655-17.655-9.749 0-17.655 7.905-17.655 17.655v26.435c0 17.108-12.339 28.606-26.952 28.606zM209.56 896.791c1.342 17.864 14.271 29.207 28.607 29.207 15.445 0 28.605-12.33 28.605-28.606v-26.435c0-9.751 7.904-17.655 17.655-17.655s17.655 7.905 17.655 17.655v26.435c0 36.594-29.797 63.916-63.915 63.916-35.097 0-61.712-28.098-63.882-62.815-0.023-0.367-0.034-0.734-0.034-1.101v-52.869c0-36.594 29.796-63.917 63.916-63.917 9.751 0 17.655 7.905 17.655 17.656s-7.904 17.655-17.655 17.655c-15.447 0-28.607 12.33-28.607 28.606v52.268zM694.053 259.046c0.584 0.058 1.171 0.088 1.758 0.088h161.912c7.142 0 13.579-4.303 16.312-10.899 2.733-6.598 1.222-14.191-3.828-19.241l-194.955-194.957c-5.049-5.049-12.645-6.559-19.241-3.826-6.598 2.731-10.899 9.17-10.899 16.31v160.261c0 28.783 25.010 49.871 48.94 52.263zM696.851 223.823c-8.813-1.278-16.428-9.673-16.428-17.041v-117.638l134.677 134.679h-118.249z" />
<glyph unicode="&#xe905;" glyph-name="calander" d="M755.069 913.455c0 25.706-20.838 46.545-46.546 46.545-25.702 0-46.541-20.839-46.541-46.545v-46.545h-279.275v46.545c0 25.706-20.839 46.545-46.545 46.545s-46.545-20.839-46.545-46.545v-46.545h-93.091c-77.119 0-139.637-62.517-139.637-139.637v-651.639c0-77.119 62.517-139.634 139.637-139.634h651.637c77.119 0 139.634 62.515 139.634 139.634v651.639c0 77.119-62.515 139.637-139.634 139.637h-93.093v46.545zM894.709 587.637h-744.729v139.636c0 25.706 20.84 46.545 46.546 46.545h93.091v-46.545c0-25.706 20.839-46.545 46.545-46.545s46.545 20.839 46.545 46.545v46.545h279.275v-46.545c0-25.706 20.838-46.545 46.541-46.545 25.708 0 46.546 20.839 46.546 46.545v46.545h93.093c25.708 0 46.546-20.839 46.546-46.545v-139.636zM149.98 494.545h744.729v-418.912c0-25.702-20.838-46.541-46.546-46.541h-651.637c-25.706 0-46.546 20.838-46.546 46.541v418.912z" />
<glyph unicode="&#xe906;" glyph-name="clock" d="M512 960c-282.317 0-512-229.683-512-512s229.683-512 512-512c282.317 0 512 229.683 512 512s-229.683 512-512 512zM512-6.257c-222.243 0-460.8 198.257-454.266 454.257 0 222.253 198.266 454.255 454.266 454.255s454.267-232.002 454.267-454.255c0-256-218.194-454.257-454.267-454.257zM778.834 463.811h-230.093v276.657c0 23.281-18.877 42.157-42.159 42.157s-42.157-18.876-42.157-42.157v-318.815c0-23.281 18.876-42.158 42.157-42.158h272.252c23.281 0 42.158 18.877 42.158 42.158s-18.877 42.158-42.158 42.158z" />
<glyph unicode="&#xe907;" glyph-name="email" horiz-adv-x="1365" d="M181.151 610.669c15.702-11.081 63.035-43.99 142.002-98.712 78.969-54.721 139.464-96.855 181.489-126.404 4.617-3.239 14.426-10.28 29.432-21.133 15.008-10.859 27.479-19.635 37.403-26.329 9.931-6.691 21.935-14.198 36.027-22.508 14.087-8.303 27.366-14.548 39.834-18.682 12.471-4.168 24.015-6.233 34.634-6.233h1.397c10.615 0 22.166 2.067 34.639 6.233 12.465 4.134 25.75 10.387 39.827 18.682 14.083 8.32 26.085 15.819 36.017 22.508 9.933 6.694 22.391 15.47 37.403 26.329 15.005 10.863 24.829 17.894 29.443 21.133 42.482 29.549 150.548 104.595 324.185 225.13 33.71 23.542 61.87 51.948 84.494 85.2 22.644 33.237 33.949 68.104 33.949 104.582 0 30.483-10.97 56.577-32.911 78.28-21.934 21.707-47.91 32.555-77.92 32.555h-1019.66c-35.557 0-62.919-12.005-82.085-36.015-19.162-24.015-28.743-54.032-28.743-90.050 0-29.093 12.704-60.619 38.099-94.56 25.392-33.943 52.416-60.615 81.043-80.007zM1234.057 536.571c-151.45-102.511-266.458-182.178-344.951-238.986-26.324-19.388-47.677-34.526-64.075-45.367-16.398-10.854-38.209-21.934-65.461-33.246-27.238-11.325-52.627-16.971-76.186-16.971h-1.4c-23.551 0-48.954 5.646-76.196 16.971-27.241 11.312-49.065 22.391-65.46 33.246-16.389 10.841-37.749 25.979-64.069 45.367-62.347 45.715-177.103 125.387-344.272 238.986-26.33 17.537-49.65 37.638-69.97 60.263v-549.989c0-30.502 10.848-56.579 32.555-78.281 21.703-21.716 47.799-32.563 78.28-32.563h1019.658c30.474 0 56.573 10.848 78.275 32.563 21.716 21.709 32.556 47.78 32.556 78.281v549.989c-19.859-22.157-42.947-42.258-69.284-60.263z" />
<glyph unicode="&#xe909;" glyph-name="facebook" horiz-adv-x="593" d="M538.862 400.842h-142.105v-424.421h-189.473v424.421h-155.368v174.316h155.368v134.526c0 151.579 90.947 236.842 229.263 236.842 66.315 0 136.419-13.263 136.419-13.263v-149.684h-77.683c-75.789 0-98.527-45.474-98.527-94.737v-113.684h168.632l-26.526-174.316z" />
<glyph unicode="&#xe90a;" glyph-name="faq" horiz-adv-x="539" d="M15.785 917.267c21.047 21.047 55.171 21.047 76.219 0l431.158-431.158c10.107-10.107 15.785-23.816 15.785-38.11s-5.678-28.004-15.785-38.109l-431.158-431.158c-21.048-21.046-55.172-21.046-76.219 0s-21.047 55.172 0 76.218l393.049 393.049-393.049 393.048c-21.047 21.048-21.047 55.172 0 76.219z" />
<glyph unicode="&#xe90c;" glyph-name="ins" d="M532.184 706.588c133.41 0 243.532-110.118 243.532-243.529 0-135.529-110.122-243.531-243.532-243.531-135.529 0-243.529 108.002-243.529 243.531 0 133.412 108 243.529 243.529 243.529zM532.184 304.236c86.824 0 156.703 69.881 156.703 158.822 0 86.824-69.879 156.706-156.703 156.706-88.941 0-158.824-69.882-158.824-156.706 0-88.941 72-158.822 158.824-158.822zM841.361 715.059c0-31.764-25.413-57.176-57.175-57.176-31.768 0-57.175 25.411-57.175 57.176s25.407 57.177 57.175 57.177c31.762 0 57.175-25.411 57.175-57.177zM1002.303 657.883c4.235-78.353 4.235-313.415 0-391.763-4.235-76.24-21.179-141.884-76.24-199.060-55.055-55.061-122.82-71.999-199.054-76.234-78.354-4.241-313.414-4.241-391.767 0-76.235 4.235-141.882 21.173-199.059 76.234-55.059 57.175-72 122.82-76.235 199.060-4.235 78.348-4.235 313.41 0 391.763 4.235 76.235 21.176 144 76.235 199.058 57.177 55.059 122.824 72 199.059 76.235 78.353 4.235 313.413 4.235 391.767 0 76.234-4.235 143.998-21.177 199.054-76.235 55.061-55.059 72.005-122.823 76.24-199.058zM900.656 183.531c25.407 61.41 19.058 209.645 19.058 279.528 0 67.765 6.349 216-19.058 279.529-16.944 40.235-48.706 74.118-88.943 88.942-63.53 25.411-211.764 19.058-279.529 19.058-69.882 0-218.117 6.353-279.529-19.058-42.353-16.941-74.118-48.706-91.059-88.942-25.412-63.529-19.059-211.764-19.059-279.529 0-69.883-6.353-218.118 19.059-279.528 16.941-42.357 48.706-74.12 91.059-91.058 61.412-25.413 209.647-19.064 279.529-19.064 67.765 0 215.999-6.349 279.529 19.064 40.237 16.938 74.12 48.7 88.943 91.058z" />
<glyph unicode="&#xe90d;" glyph-name="link" horiz-adv-x="1088" d="M259.836-64h-209.25v672.75h209.25v-672.75zM154.086 698.75c-65.25 0-119.25 56.25-119.25 123.75 0 65.25 54 119.25 119.25 119.25 67.5 0 121.5-54 121.5-119.25 0-67.5-54-123.75-121.5-123.75zM1040.589-64h-207.002v326.253c0 78.747-2.253 177.747-110.253 177.747s-123.748-83.25-123.748-171.002v-332.998h-209.25v672.75h200.25v-92.25h2.25c29.25 51.75 96.751 108 197.999 108 211.501 0 252-139.5 252-319.501v-368.998h-2.246z" />
<glyph unicode="&#xe90e;" glyph-name="map-pin" horiz-adv-x="838" d="M418.911 960c-54.467 2.555-108.868-6.292-159.719-25.972s-97.034-49.762-135.591-88.318c-38.556-38.556-68.638-84.739-88.318-135.59s-28.527-105.252-25.972-159.719c0-129.024 102.4-256 153.6-307.2s256-307.2 256-307.2c0 0 204.798 256 255.998 307.2s153.6 178.176 153.6 307.2c2.555 54.467-6.288 108.867-25.972 159.719-19.679 50.851-49.762 97.034-88.315 135.59-38.558 38.556-84.741 68.638-135.592 88.318s-105.253 28.527-159.719 25.972zM418.911 384c-32.911 0-65.083 9.761-92.447 28.044s-48.692 44.274-61.286 74.678c-12.595 30.406-15.89 63.864-9.469 96.142s22.269 61.928 45.54 85.2c23.271 23.272 52.921 39.12 85.2 45.54s65.736 3.126 96.14-9.469c30.408-12.595 56.394-33.922 74.678-61.287 18.288-27.365 28.044-59.536 28.044-92.447 0-21.852-4.301-43.49-12.665-63.679-8.364-20.187-20.62-38.53-36.073-53.983-15.448-15.453-33.792-27.709-53.983-36.073-20.187-8.36-41.825-12.665-63.677-12.665z" />
<glyph unicode="&#xe90f;" glyph-name="menu-bar" horiz-adv-x="1792" d="M0 960h1792v-102.4h-1792v102.4zM0 499.2h1792v-102.4h-1792v102.4zM0 38.4h1792v-102.4h-1792v102.4z" />
<glyph unicode="&#xe910;" glyph-name="phone" d="M1001.044 150.064l-158.142 158.519c-31.499 31.444-83.661 30.49-116.257-2.194l-79.671-79.835c-5.036 2.783-10.244 5.687-15.722 8.766-50.311 27.941-119.172 66.238-191.634 138.917-72.675 72.832-110.92 141.956-138.883 192.413-2.951 5.343-5.778 10.5-8.57 15.393l79.759 79.894c32.647 32.729 33.547 84.995 2.121 116.53l-158.14 158.534c-31.425 31.49-83.611 30.535-116.257-2.194l-44.57-44.927 1.218-1.212c-14.945-19.112-27.433-41.156-36.727-64.927-8.567-22.627-13.9-44.22-16.339-65.856-20.881-173.503 58.226-332.073 272.912-547.252 296.763-297.413 535.914-274.944 546.231-273.847 22.469 2.692 44.006 8.071 65.891 16.589 23.512 9.209 45.488 21.705 64.545 36.652l0.976-0.867 45.151 44.314c32.578 32.724 33.518 85.007 2.107 116.59z" />
<glyph unicode="&#xe911;" glyph-name="reader" d="M994.537 839.889h-261.484c-56.115 0-110.973-16.114-158.168-46.514l-55.774-35.772-55.772 35.772c-47.153 30.394-102.071 46.544-158.171 46.514h-261.486c-20.229 0-36.571-16.343-36.571-36.572v-649.143c0-20.23 16.343-36.574 36.571-36.574h261.486c56.114 0 110.971-16.111 158.171-46.512l50.743-32.683c1.485-0.916 3.2-1.49 4.914-1.49s3.429 0.461 4.915 1.49l50.74 32.683c47.314 30.401 102.286 46.512 158.401 46.512h261.484c20.23 0 36.574 16.344 36.574 36.574v649.143c0 20.229-16.344 36.572-36.574 36.572zM305.168 199.89h-215.772v557.712h215.772c40.457 0 79.771-11.543 113.714-33.371l55.772-35.772 7.885-5.143v-527.999c-54.4 29.258-115.2 44.572-177.371 44.572zM948.827 199.89h-215.774c-62.168 0-122.971-15.314-177.37-44.572v527.999l7.885 5.143 55.77 35.772c33.946 21.828 73.262 33.371 113.715 33.371h215.774v-557.712zM387.568 611.317h-212.343c-4.457 0-8.114-3.886-8.114-8.571v-51.428c0-4.686 3.657-8.571 8.114-8.571h212.229c4.457 0 8.115 3.886 8.115 8.571v51.428c0.114 4.686-3.543 8.571-8 8.571zM642.537 602.746v-51.428c0-4.686 3.658-8.571 8.118-8.571h212.23c4.454 0 8.112 3.886 8.112 8.571v51.428c0 4.686-3.658 8.571-8.112 8.571h-212.23c-4.46 0-8.118-3.886-8.118-8.571zM387.568 451.317h-212.343c-4.457 0-8.114-3.886-8.114-8.571v-51.428c0-4.684 3.657-8.569 8.114-8.569h212.229c4.457 0 8.115 3.886 8.115 8.569v51.428c0.114 4.686-3.543 8.571-8 8.571zM862.999 451.317h-212.343c-4.46 0-8.118-3.886-8.118-8.571v-51.428c0-4.684 3.658-8.569 8.118-8.569h212.23c4.454 0 8.112 3.886 8.112 8.569v51.428c0.114 4.686-3.544 8.571-7.999 8.571z" />
<glyph unicode="&#xe912;" glyph-name="slider-arrow-down" horiz-adv-x="608" d="M283.734-3.763v963.763h40.534v-963.763h-40.534zM304 237.178h304l-304-301.178-304 301.178h304z" />
<glyph unicode="&#xe913;" glyph-name="slider-arrow-left" horiz-adv-x="626" d="M495.241 948.159l80.452-80.453-414.884-414.884 414.884-414.883-80.452-80.458-495.338 495.341 495.338 495.337z" />
<glyph unicode="&#xe914;" glyph-name="slider-arrow-right" horiz-adv-x="626" d="M120.579 948.16l-80.453-80.453 414.884-414.885-414.884-414.883 80.453-80.452 495.34 495.335-495.34 495.338z" />
<glyph unicode="&#xe915;" glyph-name="slider-arrow-top" horiz-adv-x="608" d="M283.734 899.765v-963.765h40.534v963.765h-40.534zM304 658.823h304l-304 301.176-304-301.176h304z" />
<glyph unicode="&#xe916;" glyph-name="slider-divider-line" d="M982.231 960l17.66-17.66-982.231-982.233-17.66 17.66 982.231 982.233z" />
<glyph unicode="&#xe917;" glyph-name="tags" d="M559.545 955.91c6.539-2.71 12.478-6.687 17.473-11.701l431.138-431.134c5.006-5.001 8.983-10.94 11.691-17.477 2.714-6.538 4.107-13.546 4.107-20.624s-1.394-14.086-4.107-20.624c-2.708-6.538-6.684-12.477-11.691-17.477l-485.029-485.029c-4.993-5.018-10.93-9.006-17.469-11.725s-13.551-4.119-20.632-4.119c-7.082 0-14.094 1.399-20.632 4.119s-12.476 6.707-17.469 11.725l-431.134 431.138c-10.132 10.077-15.79 23.765-15.79 38.1v485.026c0 14.293 5.678 28.001 15.785 38.107s23.814 15.785 38.107 15.785h485.026c7.078 0.010 14.089-1.38 20.627-4.090zM107.783 443.393l377.243-377.243 408.823 408.823-377.243 377.243h-408.823v-408.823zM377.308 663.865c0 44.794-36.313 81.107-81.107 81.107s-81.107-36.313-81.107-81.107c0-44.794 36.313-81.108 81.107-81.108s81.107 36.313 81.107 81.108z" />
<glyph unicode="&#xe918;" glyph-name="testmonoals-left" horiz-adv-x="1495" d="M328.206 587.637c64.618 0 127.785-19.11 181.512-54.911s95.605-86.688 120.332-146.223c24.728-59.535 31.197-125.047 18.592-188.248-12.607-63.203-43.723-121.258-89.414-166.824-45.693-45.568-103.907-76.597-167.283-89.17s-129.069-6.119-188.767 18.541-110.725 66.421-146.624 120.003c-35.9 53.58-55.061 116.574-55.061 181.015l-1.494 46.545c0 172.825 68.843 338.571 191.384 460.777s288.743 190.86 462.043 190.86v-186.182c-61.319 0.164-122.063-11.795-178.719-35.189s-108.1-57.754-151.355-101.097c-16.812-16.734-32.322-34.722-46.393-53.805 16.71 2.607 33.792 4.002 51.155 4.002l0.092-0.092zM1168.327 587.637c64.618 0 127.785-19.11 181.512-54.911s95.603-86.688 120.332-146.223c24.728-59.535 31.197-125.047 18.592-188.248-12.607-63.203-43.723-121.258-89.416-166.824-45.691-45.568-103.905-76.597-167.283-89.17-63.375-12.573-129.067-6.119-188.766 18.541s-110.723 66.421-146.625 120.003c-35.899 53.58-55.060 116.574-55.060 181.015l-1.493 46.545c0 172.825 68.841 338.571 191.384 460.777s288.743 190.86 462.043 190.86v-186.182c-61.319 0.164-122.063-11.795-178.719-35.189s-108.1-57.754-151.355-101.097c-16.812-16.734-32.322-34.722-46.393-53.805 16.71 2.607 33.792 4.002 51.247 4.002v-0.092z" />
<glyph unicode="&#xe919;" glyph-name="testmonoals-slider-left" horiz-adv-x="1725" d="M101.449 482.132h1623.183v-68.268h-1623.183v68.268zM507.242 448v-512l-507.245 512 507.245 512v-512z" />
<glyph unicode="&#xe91a;" glyph-name="testmonoals-slider-right" horiz-adv-x="1725" d="M1623.18 482.132h-1623.18v-68.268h1623.18v68.268zM1217.39 448v-512l507.241 512-507.241 512v-512z" />
<glyph unicode="&#xe91b;" glyph-name="tw" horiz-adv-x="1216" d="M1063.040 666c0-11.25 0-20.25 0-31.5 0-312.75-236.25-670.5-670.501-670.5-135 0-258.75 38.253-362.25 105.747 18-2.246 36-4.499 56.25-4.499 110.25 0 211.5 38.253 292.5 101.254-103.5 2.246-191.251 69.747-220.5 164.248 15.75-2.25 29.25-4.5 45-4.5 20.25 0 42.75 4.5 60.75 9-108 22.5-189 117-189 231.75v2.25c31.5-18 69.75-27 108-29.25-65.25 42.75-105.75 114.75-105.75 195.75 0 45 11.25 85.5 31.5 119.251 117-141.75 292.5-236.25 488.25-247.5-4.5 18-6.75 36-6.75 54 0 130.5 105.749 236.25 236.252 236.25 67.501 0 128.25-27 173.248-74.25 51.75 11.25 103.501 31.5 148.499 58.5-17.997-56.25-53.997-101.25-103.501-130.5 47.251 4.5 94.502 18 135.002 36-31.501-47.25-72-87.75-116.998-121.5z" />
<glyph unicode="&#xe91c;" glyph-name="update" d="M72.994 471.874v0.077c0 92.682 41.761 168.131 97.261 230.54 46.962 52.861 101.143 93.768 145.543 127.146l0.077 0.155v-143.292c0-10.293 4.089-20.165 11.368-27.444s17.15-11.368 27.444-11.368c10.293 0 20.165 4.089 27.444 11.368s11.368 17.15 11.368 27.444v232.868c0 10.293-4.089 20.165-11.368 27.444s-17.15 11.368-27.444 11.368h-232.868c-10.293 0-20.165-4.089-27.444-11.368s-11.368-17.15-11.368-27.444c0-10.293 4.089-20.165 11.368-27.444s17.15-11.368 27.444-11.368h126.991c-41.761-31.747-93.691-73.276-139.1-124.352-63.34-71.257-117.599-165.026-117.599-284.332 0-280.682 204.847-471.169 430.807-510.291 5.234-0.91 10.596-0.774 15.779 0.387 5.183 1.166 10.086 3.339 14.429 6.4s8.041 6.946 10.882 11.435c2.842 4.489 4.771 9.495 5.678 14.729s0.774 10.598-0.39 15.781c-1.165 5.183-3.339 10.086-6.399 14.427s-6.945 8.038-11.434 10.883c-4.489 2.839-9.493 4.767-14.728 5.678-192.427 33.297-363.74 194.287-363.74 430.573zM935.231 440.359c0-92.756-41.762-168.208-97.263-230.541-46.888-52.935-101.143-93.764-145.465-127.3h-0.154v143.212c0 10.297-4.090 20.167-11.372 27.449-7.276 7.276-17.146 11.366-27.443 11.366-10.291 0-20.161-4.090-27.443-11.366-7.276-7.282-11.366-17.152-11.366-27.449v-232.863c0-10.297 4.090-20.167 11.366-27.449 7.282-7.276 17.152-11.366 27.443-11.366h232.869c10.291 0 20.167 4.090 27.443 11.366 7.282 7.282 11.366 17.152 11.366 27.449 0 10.291-4.085 20.161-11.366 27.443-7.276 7.276-17.152 11.366-27.443 11.366h-126.993c41.762 31.744 93.696 73.273 139.105 124.353 63.34 71.333 117.595 165.023 117.595 284.33 0 277.657-200.499 467.057-423.583 508.973-5.262 1.081-10.684 1.103-15.952 0.066s-10.279-3.113-14.737-6.107c-4.458-2.994-8.274-6.845-11.228-11.33s-4.984-9.512-5.974-14.79c-0.989-5.278-0.918-10.7 0.21-15.95s3.29-10.222 6.361-14.627c3.070-4.405 6.988-8.155 11.522-11.030s9.596-4.819 14.892-5.717c189.941-35.706 357.609-195.687 357.609-429.487z" />
<glyph unicode="&#xe91d;" glyph-name="user" horiz-adv-x="1075" d="M533.253 287.427c-27.233 0.435-52.725 4.142-76.037 11.116-24.62-49.459-98.696-124.191-317.004-179.092-64.055-16.343-67.976-96.952-64.708-143.58 1.525-20.48-14.162-38.344-34.642-39.869-0.871 0-1.743 0-2.614 0-19.391 0-35.949 15.032-37.256 34.642-8.279 118.958 35.731 199.572 121.137 221.358 199.353 50.109 253.168 112.205 267.548 139.438-13.944 10.020-27.016 21.571-38.781 35.077-99.35 111.987-83.227 303.279-81.267 322.234 11.548 248.374 206.108 270.379 265.586 271.251h1.526c0.435 0 0.87 0 1.526 0h1.306c122.665-1.307 256.655-73.423 266.24-271.251 1.961-18.955 18.084-210.247-81.265-322.234-13.507-15.252-28.759-28.539-45.102-39.434 17.649-28.324 76.037-87.803 264.934-135.081 85.187-21.571 129.418-102.4 120.919-221.138-1.306-19.61-17.864-34.642-37.258-34.642-0.87 0-1.741 0-2.611 0-20.48 1.521-36.168 19.389-34.642 39.869 3.267 46.623-0.87 127.237-64.707 143.575-212.209 53.161-288.681 125.716-315.484 176.916-21.35-5.668-44.227-8.719-68.628-9.155h-8.714zM538.701 362.158c55.557 0.655 98.043 18.304 129.853 53.816 80.394 90.416 62.966 264.278 62.966 266.020 0 0.871-0.22 1.525-0.22 2.397-7.844 172.99-123.971 200.225-192.599 200.879h-2.396c-68.412-0.872-184.539-28.324-192.382-200.879 0-0.653 0-1.525-0.218-2.179-0.218-1.743-17.648-175.605 62.965-266.023 31.81-35.727 74.077-53.161 129.85-53.811h2.181v-0.22z" />
<glyph unicode="&#xe91e;" glyph-name="views" d="M517.816 955.348l409.593-238.928c5.154-3.007 9.426-7.312 12.396-12.487 2.975-5.174 4.534-11.037 4.534-17.004v-477.856c0-5.968-1.559-11.827-4.534-17.004-2.97-5.177-7.242-9.478-12.396-12.487l-409.593-238.928c-5.221-3.049-11.158-4.654-17.203-4.654s-11.981 1.604-17.203 4.654l-409.592 238.928c-5.153 3.009-9.428 7.31-12.398 12.487s-4.533 11.036-4.531 17.004v477.856c-0.002 5.967 1.56 11.829 4.531 17.004s7.245 9.48 12.398 12.487l409.592 238.928c5.221 3.047 11.158 4.652 17.203 4.652s11.982-1.605 17.203-4.652zM500.613 9.671l375.459 218.994v438.672l-375.459 218.995-375.459-218.995v-438.672l375.459-218.994zM766.060 465.785c-21.089 53.729-57.481 100.087-104.664 133.33-47.189 33.242-103.091 51.908-160.783 53.682-57.692-1.774-113.596-20.44-160.781-53.682s-83.578-79.602-104.668-133.33l-7.612-17.783 7.612-17.783c21.090-53.728 57.483-100.087 104.668-133.333 47.185-33.24 103.089-51.905 160.781-53.68 57.692 1.775 113.593 20.44 160.783 53.68 47.184 33.246 83.575 79.605 104.664 133.333l7.612 17.783-7.612 17.783zM500.613 311.472c-27.003 0-53.4 8.004-75.852 23.006-22.452 15.007-39.952 36.329-50.285 61.276s-13.038 52.399-7.77 78.883c5.268 26.485 18.272 50.812 37.366 69.906s43.422 32.097 69.906 37.365c26.485 5.268 53.936 2.565 78.884-7.769s46.27-27.833 61.272-50.285c15.002-22.452 23.012-48.849 23.012-75.852-0.046-36.197-14.444-70.897-40.038-96.492s-60.297-39.993-96.493-40.038zM500.613 379.739c-37.702 0-68.265 30.561-68.265 68.263s30.563 68.265 68.265 68.265c37.702 0 68.266-30.564 68.266-68.265s-30.564-68.263-68.266-68.263z" />
</font>
</defs>
</svg>
